Ссылка на приватное зеркало нашего сайта всего за 1$. Внимание количество ограничено!!!

2 сезон

iTunes

1 сезон

1

2 сезон

2 сезон

iTunes

1 сезон

RePack

30

Новинка

ВАЖНО

ИГРА 18+

pack

RePack

MK11
pack

Забери бонус

RePack

jed

!!Акция!!

Alien_Rage

RePack

fifa19

RePack

Assassins Creed: Odyssey

RePack

NEED FOR SPEED™ PAYBACK

4 сезон

9 сезон

Бесстыжие 9 сезон

Все сериалы

все сериалы на PB.wtf

RePack

FAR CRY 5
  

Леденящие душу приключения Сабрины / Chilling Adventures of Sabrina / Сезон: 2 / Серии: 1-9 из 9 (Роб Шейденгланц, Мэгги Кили, Ли Толанд Кригер) [2019, Ужасы, фэнтези, триллер, драма, детектив, WEBRip] [Dub] (Пифагор) pb.wtf

Леденящие душу приключения Сабрины через торрент pb.wtf

Размер: 7.23 GB | Добавлен: 1 год 7 мес. назад | Торрент скачан:69 раз
Скачать  

10-04-2019 20:00 Леденящие душу приключения Сабрины Скачать торрент  

Леденящие душу приключения Сабрины / Chilling Adventures of Sabrina

Год выпуска: 2019
Страна: США
Жанр: Ужасы, фэнтези, триллер, драма, детектив
Продолжительность: ~01:00:00 серия

Перевод: Профессиональный (дублированный) Пифагор

Режиссёр: Роб Шейденгланц, Мэгги Кили, Ли Толанд Кригер

В ролях: Кирнан Шипка, Росс Линч, Люси Дэвис, Чэнс Пердомо, Мишель Гомес, Джаз Синклер, Тати Габриэль, Аделин Рудольф, Ричард Койл, Миранда Отто и др.

Описание: Сабрина Спеллман — получеловек и полуведьма, живущая в маленьком городе Гриндэйл. В Хэллоуин ей исполнится 16 лет и ей придётся пройти тёмные крестины — священное обещание служения Властелину Тьмы. Чтобы это сделать, Сабрина должна распрощаться со своей земной жизнью и отправиться в академию незримых искусств, дабы стать настоящей ведьмой. Но она отказывается делать это, ибо не хочет прощаться со своими друзьями и своим парнем. Из-за этого Сабрина попадает под гнев Властелина Тьмы и ведьминого клана Церкви тьмы. Теперь ей придётся бороться за свою свободу и свободу своих близких.



Релиз от:

Сэмпл: http://sendfile.su/1487455

Качество: WEBRip
Формат: AVI
Видео: 704x320 (2.20:1), 23.976 fps, XviD build 73 ~1700 kbps avg, 0.32 bit/pixel
Аудио #1: 48 kHz, MPEG Layer 3, 2 ch, ~128.00 kbps avg | RUS | Пифагор
Аудио #2: 48 kHz, MPEG Layer 3, 2 ch, ~128.00 kbps avg | ENG
Субтитры: Русские (Forced, Full), английские (Full)

Реклама: Отсутствует
01. Глава двенадцатая: Богоявление | Chapter Twelve: The Epiphany
02. Глава тринадцатая: Страсть Сабрины Спеллман | Chapter Thirteen: The Passion of Sabrina Spellman
03. Глава четырнадцатая: Луперкалия | Chapter Fourteen: Lupercalia
04. Глава пятнадцатая: Дом ужасов доктора Цербера | Chapter Fifteen: Doctor Cerberbus's House of Horror
05. Глава шестнадцатая: Чёрное дерево | Chapter Sixteen: Blackwood
06. Глава семнадцатая: Миссионеры | Chapter Seventeen: The Missionaries
07. Глава восемнадцатая: Чудеса Сабрины Спеллман | Chapter Eighteen: The Miracles of Sabrina Spellman
08. Глава девятнадцатая: Мандрагора | Chapter Nineteen: The Mandrake
09. Глава двадцатая: Вальс Мефистофеля | Chapter Twenty: The Mephisto Waltz
General
Complete name : D:\Chilling.Adventures.of.Sabrina.S02.WEBRip.OlLanDGroup\Chilling.Adventures.of.Sabrina.S02E04.WEBRip.OlLanDGroup.avi
Format : AVI
Format/Info : Audio Video Interleave
File size : 900 MiB
Duration : 1 h 3 min
Overall bit rate : 1 977 kb/s
Writing application : VirtualDubMod 1.5.10.2 (build 2540/release)
Writing library : VirtualDubMod build 2540/release

Video
ID : 0
Format : MPEG-4 Visual
Format profile : Advanced Simple@L5
Format settings : BVOP1 / Custom Matrix
Format settings, BVOP : 1
Format settings, QPel : No
Format settings, GMC : No warppoints
Format settings, Matrix : Custom
Codec ID : XVID
Codec ID/Hint : XviD
Duration : 1 h 3 min
Bit rate : 1 707 kb/s
Width : 704 pixels
Height : 320 pixels
Display aspect ratio : 2.2:1
Frame rate : 23.976 (24000/1001) FPS
Color space : YUV
Chroma subsampling : 4:2:0
Bit depth : 8 bits
Scan type : Progressive
Compression mode : Lossy
Bits/(Pixel*Frame) : 0.316
Stream size : 777 MiB (86%)
Writing library : XviD 73

Audio #1
ID : 1
Format : MPEG Audio
Format version : Version 1
Format profile : Layer 3
Codec ID : 55
Codec ID/Hint : MP3
Duration : 1 h 3 min
Bit rate mode : Constant
Bit rate : 128 kb/s
Channel(s) : 2 channels
Sampling rate : 48.0 kHz
Frame rate : 41.667 FPS (1152 SPF)
Compression mode : Lossy
Stream size : 58.2 MiB (6%)
Alignment : Aligned on interleaves
Interleave, duration : 42 ms (1.00 video frame)
Interleave, preload duration : 504 ms
Writing library : LAME3.99r
Encoding settings : -m s -V 4 -q 2 -lowpass 17 -b 128

Audio #2
ID : 2
Format : MPEG Audio
Format version : Version 1
Format profile : Layer 3
Codec ID : 55
Codec ID/Hint : MP3
Duration : 1 h 3 min
Bit rate mode : Constant
Bit rate : 128 kb/s
Channel(s) : 2 channels
Sampling rate : 48.0 kHz
Frame rate : 41.667 FPS (1152 SPF)
Compression mode : Lossy
Stream size : 58.2 MiB (6%)
Alignment : Aligned on interleaves
Interleave, duration : 42 ms (1.00 video frame)
Interleave, preload duration : 504 ms
Writing library : LAME3.99r
Encoding settings : -m s -V 4 -q 2 -lowpass 17 -b 128
скриншот  скриншот  скриншот  
pb.wtf



Скачать Леденящие душу приключения Сабрины через торрент http://funkyimg.com/i/2MZy6.jpg Скачать фильм Леденящие душу приключения Сабрины через торрент бесплантно в хорошем качестве Описание: Сабрина Спеллман — получеловек и полуведьма, живущая в маленьком городе Гриндэйл. В Хэллоуин ей исполнится 16 лет и ей придётся ... 5 10 1
Торрент: Зарегистрирован [2019-04-10 20:00] · скачан: 69 раз
Статус: √ проверено
Размер: 7.23 GB
Как cкачать? Как скачать Леденящие душу приключения Сабрины через торрент | qTorrent

% Раздел Тема Автор DL S | L
Зарубежные сериалы [ 11.79 GB ] Леденящие душу Сабрины / Chilling Adventures of Sabrina / Сезон: 2 / Серии 1-9 из 9 [2019 WEBRip1080p] [MVO] killermax2013 Скачать
1 | 0
Зарубежные сериалы [ 1.6 GB ] Леденящие душу Сабрины / The Chilling Adventures of Sabrina / Сезон: 2 / Серии: 1 из 9 [2019 WEBRip 1080p] MVO [TVShows] bober100 Скачать
1 | 0
Зарубежные сериалы [ 7.77 GB ] Леденящие душу Сабрины / The Chilling Adventures of Sabrina / Сезон: 2 / Серии: 1-9 из 9 [2019 WEB-DL 720p] MVO [Jaskier] bober100 Скачать
1 | 0
Зарубежные сериалы [ 6.44 GB ] Леденящие душу Сабрины / The Chilling Adventures of Sabrina / Сезон: 2 / Серии: 1-9 из 9 [2019 WEB-DLRip] MVO [Jaskier] bober100 Скачать
1 | 0
Зарубежные сериалы [ 13.07 GB ] Леденящие душу Сабрины / Chilling Adventures of Sabrina / Сезон: 2 / Серии: 1-9 из 9 [2019 WEBRip 1080p] killermax2013 Скачать
1 | 0

28-11-2019 20:33  

Отключить всю рекламу на сайте

    Дорогой пользователь! Огромная просьба, поблагодарите релизера, оцените раздачу и оставьте свои комментарий, если Вы скачали Леденящие душу приключения Сабрины через торрент бесплатно! Внесите свою лепту в развитие PiratBit!
    Комментировать посты могут только пользователи прошедшие не сложную регистрацию
    Показать сообщения:    

    Леденящие душу приключения Сабрины через торрент
    Скачать бесплатно Леденящие душу приключения Сабрины
    Леденящие душу приключения Сабрины скачать торрент
    Леденящие душу приключения Сабрины смотреть онлайн
    Cкачать фильм Леденящие душу приключения Сабрины бесплатно
    Леденящие душу приключения Сабрины скачать торрент в хорошем качестве
    Леденящие душу приключения Сабрины смотреть онлайн бесплатно в хорошем качестве


    Вы не можете начинать темы
    Вы не можете отвечать на сообщения
    Вы не можете редактировать свои сообщения
    Вы не можете удалять свои сообщения
    Вы не можете голосовать в опросах
    Вы не можете прикреплять файлы к сообщениям
    Вы можете скачивать файлы