Ссылка на приватное зеркало всего за 1$. Внимание количество ограничено!!!

OK

1+1

iTunes

мы

OK

1

WEB-DLRip

Джокер

Пифагор

Ведьмак / The Witcher сериал

iTunes

ПШазам

ОК

Оно 2

iTunes

30
pack

Вам бонус

ВАЖНО

!!Акция!!

Alien_RageХит недели

RePack

Resident Evil 21

ИГРА 18+

pack

RePack

jed

RePack

fifa19

RePack

Assassins Creed: Odyssey

RePack

NEED FOR SPEED™ PAYBACK

4 сезон

9 сезон

Бесстыжие 9 сезон

Все сериалы

все сериалы на PB.wtf

RePack

FAR CRY 5
  

Возвращайтесь домой / Let’s Go Home (Ли Сяоцзюнь) [2018, драма, WEB-DL 720p] MVO [КОЛОБОК] pb.wtf

Возвращайтесь домой через торрент pb.wtf

Размер: 4.09 GB | Добавлен: 9 мес. назад | Торрент скачан:2 раза
Скачать  

11-04-2019 03:25 Возвращайтесь домой Скачать торрент  

Возвращайтесь домой / Let’s Go HomeГод выпуска: 2018
Страна: Китай
Жанр: драма
Продолжительность: 01:41:55
Перевод: Любительский (многоголосый) | КОЛОБОК
Субтитры: отсутствуют

Режиссер: Ли Сяоцзюнь



В ролях: Алекс Ман, Вэнь Си, Ван Инъин, Хуан Ино, Чэнь Хаожань, Цзян Южу, Ван Чжэньян, Цао Шаоцинь, Сюй Чжиюн, Чжу Синьфань

Описание: Городская девушка, после многих лет сложностей и неудач, отказывается от городской жизни и отправляется в деревню, чтобы работать учителем в простой сельской школе, дети в которой ждут своих родителей, уехавших в город на заработки. Там, вместе с другом, она делает всё, чтобы вернуть домой своих земляков, напоминая им о том, что семья и любовь - важнее убогой жизни в бетонных джунглях.

Качество: WEB-DL 720p
Формат: MKV

Видео: h.264,5 353 Кбит/с, 1280x544
Аудио#1: Русский, (AC3, 2 ch, 384 Кбит/с)
скриншот  скриншот  скриншот  

Общее
Уникальный идентификатор : 227666065564307630243269621244587915323 (0xAB46E3A91B4DBEEE857C8767203BB83B)
Полное имя : D:\Let’s.Go.Home.2019.Pk.WEB-DL.72Op.mkv
Формат : Matroska
Версия формата : Version 2
Размер файла : 4,09 Гбайт
Продолжительность : 1 ч. 41 м.
Режим общего битрейта : Переменный
Общий поток : 5738 Кбит/сек
Дата кодирования : UTC 2019-04-10 16:45:35
Программа кодирования : mkvmerge v8.3.0 ('Over the Horizon') 64bit
Библиотека кодирования : libebml v1.3.1 + libmatroska v1.4.2

Видео
Идентификатор : 1
Формат : AVC
Формат/Информация : Advanced Video Codec
Профиль формата : High@L4.1
Параметр CABAC формата : Да
Параметр RefFrames формата : 4 кадра
Идентификатор кодека : V_MPEG4/ISO/AVC
Продолжительность : 1 ч. 41 м.
Вид битрейта : Переменный
Битрейт : 5353 Кбит/сек
Максимальный битрейт : 6000 Кбит/сек
Ширина : 1280 пикселей
Высота : 544 пикселя
Соотношение сторон : 2,35:1
Режим частоты кадров : Постоянный
Частота кадров : 23,976 (24000/1001) кадра/сек
Стандарт вещания : Component
Цветовое пространство : YUV
Субдискретизация насыщенности : 4:2:0
Битовая глубина : 8 бит
Тип развёртки : Прогрессивная
Бит/(Пиксели*Кадры) : 0.314
Размер потока : 3,73 Гбайт (91%)
Default : Да
Forced : Нет
Цветовой диапазон : Limited
Основные цвета : BT.709
Характеристики трансфера : BT.709
Коэффициенты матрицы : BT.709

Аудио
Идентификатор : 2
Формат : AC-3
Формат/Информация : Audio Coding 3
Расширение режима : CM (complete main)
Параметр Endianness формата : Big
Идентификатор кодека : A_AC3
Продолжительность : 1 ч. 41 м.
Вид битрейта : Постоянный
Битрейт : 384 Кбит/сек
Каналы : 2 канала
Расположение каналов : Front: L R
Частота : 48,0 КГц
Частота кадров : 31,250 кадров/сек (1536 spf)
Метод сжатия : С потерями
Размер потока : 280 Мбайт (7%)
Default : Да
Forced : Нет

pb.wtf



Скачать Возвращайтесь домой через торрент https://a.radikal.ru/a28/1904/bf/a4eb17f92d5b.jpg Скачать фильм Возвращайтесь домой через торрент бесплантно в хорошем качестве Описание: Городская девушка, после многих лет сложностей и неудач, отказывается от городской жизни и отправляется в деревню, чтобы работать ... 10 10 2
Торрент: Зарегистрирован [2019-04-11 03:25] · скачан: 2 раз
Статус: T временная
Размер: 4.09 GB
Как cкачать? Как скачать Возвращайтесь домой через торрент | qTorrent

% Раздел Тема Автор DL S | L
T Фильмы (мультфильмы) cо спонсором показа (Новинки AVI/MKV) [ 1.37 GB ] Возвращайтесь домой / Let’s Go Home [2018 WEB-DLRip] MVO [КОЛОБОК] bober100 Скачать
1 | 0

28-11-2019 20:33  

Отключить всю рекламу на сайте

    Дорогой пользователь! Огромная просьба, поблагодарите релизера, оцените раздачу и оставьте свои комментарий, если Вы скачали Возвращайтесь домой через торрент бесплатно! Внесите свою лепту в развитие PiratBit!
    Комментировать посты могут только пользователи прошедшие не сложную регистрацию
    Показать сообщения:    

    Возвращайтесь домой через торрент
    Скачать бесплатно Возвращайтесь домой
    Возвращайтесь домой скачать торрент
    Возвращайтесь домой смотреть онлайн
    Cкачать фильм Возвращайтесь домой бесплатно
    Возвращайтесь домой скачать торрент в хорошем качестве
    Возвращайтесь домой смотреть онлайн бесплатно в хорошем качестве


    Вы не можете начинать темы
    Вы не можете отвечать на сообщения
    Вы не можете редактировать свои сообщения
    Вы не можете удалять свои сообщения
    Вы не можете голосовать в опросах
    Вы не можете прикреплять файлы к сообщениям
    Вы можете скачивать файлы