Ссылка на приватное зеркало нашего сайта всего за 1$. Внимание количество ограничено!!!

2 сезон

iTunes

1 сезон

1

2 сезон

2 сезон

iTunes

1 сезон

RePack

30

Ultimate

ВАЖНО

ИГРА 18+

pack

RePack

MK11
pack

Забери бонус

RePack

jed

!!Акция!!

Alien_Rage

RePack

fifa19

RePack

Assassins Creed: Odyssey

RePack

NEED FOR SPEED™ PAYBACK

4 сезон

9 сезон

Бесстыжие 9 сезон

Все сериалы

все сериалы на PB.wtf

RePack

FAR CRY 5
  

Кровь викинга / Viking Blood (Ури Шварц) [2019, Боевик, WEB-DL 1080p] MVO [HDRezka Studio] - ExKinoRay pb.wtf

Кровь викинга через торрент pb.wtf

Размер: 3.24 GB | Добавлен: 1 год 7 мес. назад | Торрент скачан:310 раз
Скачать  

11-04-2019 04:26 Кровь викинга Скачать торрент  

Название: Кровь викинга
Оригинальное название: Viking Blood
Год выпуска: 2019
Жанр: Боевик
Режиссер: Ури Шварц
В ролях: Роберт Фоллин, Пернилла Бергендорф, Ури Шварц, Миа Лердам, Мартин Хестбек, Ирина Франкильд, Майкл Раджани, Карен Маргрет Готфредсен, Арнар Орвар Бломстерберг, Питер Хольст

Описание: Одинокий воин прибывает в деревню викингов, разрываемую религиозной междуусобицей между последователями старых богов и отступниками, привезшими из Англии христианство. Чужеземец, не отягощённый моралью, решает заработать на их противостоянии и попутно доказать, что никаких богов не существует.



Выпущено: Дания, Fluxform Entertainment
Продолжительность: 01:28:52
Перевод: Профессиональный (многоголосый, закадровый) | HDRezka Studio

БЕЗ КАКОЙ-ЛИБО РЕКЛАМЫ!

Формат: MKV
Качество: WEB-DL 1080p
Видео: MPEG-4 AVC, 1916x792 (2.40:1), 25.000 fps, 4476 Kbps, 0.118 bit/pixel
Аудио 1: 48 kHz, AC3, 2.0, 256 Kbps | MVO | RUS |
Аудио 2: 48 kHz, AC3, 5.1, 384 Kbps | Оригинал | ENG |
General
Unique ID : 221236878429908812919297510387292031639 (0xA670AC42FBDBAFFCA2F9FF025703CA97)
Complete name : F:\Viking.Blood.2019.MVO.1080p.WEB-DL.ExKinoRat.mkv
Format : Matroska
Format version : Version 2
File size : 3.24 GiB
Duration : 1 h 28 min
Overall bit rate : 5 220 kb/s
Movie name : Viking Blood 2019 from ExKinoRay
Encoded date : UTC 2019-04-11 02:42:46
Writing application : mkvmerge v5.6.0 ('Kenya Kane') built on May 27 2012 16:44:04
Writing library : libebml v1.2.3 + libmatroska v1.3.0

Video
ID : 1
Format : AVC
Format/Info : Advanced Video Codec
Format profile : High@L4
Format settings, CABAC : Yes
Format settings, ReFrames : 5 frames
Codec ID : V_MPEG4/ISO/AVC
Duration : 1 h 28 min
Bit rate : 4 476 kb/s
Width : 1 916 pixels
Height : 792 pixels
Display aspect ratio : 2.40:1
Frame rate mode : Constant
Frame rate : 25.000 FPS
Color space : YUV
Chroma subsampling : 4:2:0
Bit depth : 8 bits
Scan type : Progressive
Bits/(Pixel*Frame) : 0.118
Stream size : 2.78 GiB (86%)
Title : Viking.Blood.2019.1080p
Language : English
Default : Yes
Forced : No
Color range : Limited
Color primaries : BT.709
Transfer characteristics : BT.709
Matrix coefficients : BT.709

Audio #1
ID : 2
Format : AC-3
Format/Info : Audio Coding 3
Mode extension : CM (complete main)
Format settings, Endianness : Big
Codec ID : A_AC3
Duration : 1 h 28 min
Bit rate mode : Constant
Bit rate : 256 kb/s
Channel(s) : 2 channels
Channel positions : Front: L R
Sampling rate : 48.0 kHz
Frame rate : 31.250 FPS (1536 spf)
Compression mode : Lossy
Stream size : 163 MiB (5%)
Title : MVO (HDRezka Studio)
Language : Russian
Default : No
Forced : No

Audio #2
ID : 3
Format : AC-3
Format/Info : Audio Coding 3
Mode extension : CM (complete main)
Format settings, Endianness : Big
Codec ID : A_AC3
Duration : 1 h 28 min
Bit rate mode : Constant
Bit rate : 384 kb/s
Channel(s) : 6 channels
Channel positions : Front: L C R, Side: L R, LFE
Sampling rate : 48.0 kHz
Frame rate : 31.250 FPS (1536 spf)
Compression mode : Lossy
Stream size : 244 MiB (7%)
Language : English
Default : No
Forced : No

Menu
00:00:00.000 : en:1
00:23:35.000 : en:2
00:46:31.000 : en:3
01:05:42.000 : en:4
01:25:53.000 : en:5
Релиз от:

Автор релиза: pb.wtf



Скачать Кровь викинга через торрент https://a.radikal.ru/a03/1904/6a/7e59f38822d7.jpg Скачать фильм Кровь викинга через торрент бесплантно в хорошем качестве Описание: Одинокий воин прибывает в деревню викингов, разрываемую религиозной междуусобицей между последователями старых богов и ... 9.9 10 11
Info! Золотая раздача, скачанное не засчитывается.
Торрент: Зарегистрирован [2019-04-11 04:26] · скачан: 310 раз
Статус: T временная
Размер: 3.24 GB
Как cкачать? Как скачать Кровь викинга через торрент | qTorrent

28-11-2019 20:33  

Отключить всю рекламу на сайте

    Дорогой пользователь! Огромная просьба, поблагодарите релизера, оцените раздачу и оставьте свои комментарий, если Вы скачали Кровь викинга через торрент бесплатно! Внесите свою лепту в развитие PiratBit!
    Комментировать посты могут только пользователи прошедшие не сложную регистрацию
    Показать сообщения:    

    Кровь викинга через торрент
    Скачать бесплатно Кровь викинга
    Кровь викинга скачать торрент
    Кровь викинга смотреть онлайн
    Cкачать фильм Кровь викинга бесплатно
    Кровь викинга скачать торрент в хорошем качестве
    Кровь викинга смотреть онлайн бесплатно в хорошем качестве


    Вы не можете начинать темы
    Вы не можете отвечать на сообщения
    Вы не можете редактировать свои сообщения
    Вы не можете удалять свои сообщения
    Вы не можете голосовать в опросах
    Вы не можете прикреплять файлы к сообщениям
    Вы можете скачивать файлы