Ссылка на приватное зеркало нашего сайта всего за 1$. Внимание количество ограничено!!!

2 сезон

iTunes

1 сезон

1

2 сезон

2 сезон

iTunes

1 сезон

RePack

30

Ultimate

ВАЖНО

ИГРА 18+

pack

RePack

MK11
pack

Забери бонус

RePack

jed

!!Акция!!

Alien_Rage

RePack

fifa19

RePack

Assassins Creed: Odyssey

RePack

NEED FOR SPEED™ PAYBACK

4 сезон

9 сезон

Бесстыжие 9 сезон

Все сериалы

все сериалы на PB.wtf

RePack

FAR CRY 5
  

Эквилибриум / Equilibrium (Курт Уиммер) [2002, Фантастика, боевик, триллер, драма, BD Remux 1080p] DUB [Лицензия] +AVO [Д. Есарев] pb.wtf

Эквилибриум через торрент pb.wtf

Размер: 19.12 GB | Добавлен: 1 год 7 мес. назад | Торрент скачан:36 раз
Скачать  

11-04-2019 07:21 Эквилибриум Скачать торрент  

Эквилибриум / Equilibrium Год выпуска: 2002
Страна: США
Жанр: Фантастика, боевик, триллер, драма
Продолжительность: 01:46:50
Перевод:

Дублированный | Лицензия
Авторский (одноголосый) | Дмитрий Есарев

Субтитры: Русские, английские

Режиссер: Курт Уиммер

rating

В ролях:

Кристиан Бэйл, Шон Бин, Эмили Уотсон, Тэй Диггз, Энгус Макфадьен, Шон Пертуи, Уильям Фихтнер, Джон Кеог, Дэвид Барраш, Дирк Мартенс

Описание:

Действие происходит в будущем, когда люди лишены возможности выражать какие-то эмоции, потому, что они… запрещены. Это — та цена, которую человечество платит за устранение из своей жизни войны. Теперь книги, искусство и музыка находятся вне закона. А любое чувство — уже преступление, наказуемое смертью. Для проведения в жизнь существующего правила используется принудительное применение лекарства «прозиум». Правительственный агент Джон Престон борется с теми, кто нарушает правила. В один прекрасный момент он забывает принять очередную дозу лекарства и с ним происходит духовное превращение, что приводит его к противоречию с самим собой и с начальством.

Качество: BD Remux 1080p | Open Matte
Формат: MKV

Видео: VC-1 / 22036 kbps / 1920x1080 / 23.976 fps
Аудио#1: Русский / DTS Audio / 5.1 / 48 kHz / 768 kbps - Дублированный
Аудио#2: Русский / DTS-HD MA / 5.1 / 48 kHz / 2188 kbps - Дмитрий Есарев
Аудио#3: Английский / DD Audio / 5.1 / 48 kHz / 640 kbps - Оригинальный
скриншот  скриншот  скриншот  

Format : Matroska
Format version : Version 4 / Version 2
File size : 19.1 GiB
Duration : 1 h 46 min
Overall bit rate : 25.6 Mb/s
Movie name : Equilibrium (2002) BDRemux 1080p | Open Matte | =Ved-Uk=
Encoded date : UTC 2018-07-21 20:35:33
Writing application : mkvmerge v22.0.0 ('At The End Of The World') 64-bit
Writing library : libebml v1.3.5 + libmatroska v1.4.8

Video
ID : 1
Format : VC-1
Format profile : Advanced@L3
Codec ID : V_MS/VFW/FOURCC / WVC1
Codec ID/Hint : Microsoft
Duration : 1 h 46 min
Bit rate : 22.0 Mb/s
Width : 1 920 pixels
Height : 1 080 pixels
Display aspect ratio : 16:9
Frame rate mode : Constant
Frame rate : 23.976 (24000/1001) FPS
Color space : YUV
Chroma subsampling : 4:2:0
Bit depth : 8 bits
Scan type : Progressive
Compression mode : Lossy
Bits/(Pixel*Frame) : 0.443
Stream size : 16.4 GiB (86%)
Title : Эквилибриум
Language : English
Default : Yes
Forced : No

Audio #1
ID : 2
Format : DTS
Format/Info : Digital Theater Systems
Mode : 16
Format settings, Endianness : Big
Codec ID : A_DTS
Duration : 1 h 46 min
Bit rate mode : Constant
Bit rate : 755 kb/s
Channel(s) : 6 channels
Channel positions : Front: L C R, Side: L R, LFE
Sampling rate : 48.0 kHz
Frame rate : 93.750 FPS (512 SPF)
Bit depth : 24 bits
Compression mode : Lossy
Stream size : 577 MiB (3%)
Title : Дубляж
Language : Russian
Default : Yes
Forced : No

Audio #2
ID : 3
Format : DTS
Format/Info : Digital Theater Systems
Format profile : MA / Core
Mode : 16
Format settings, Endianness : Big
Codec ID : A_DTS
Duration : 1 h 46 min
Bit rate mode : Variable / Constant
Bit rate : 2 188 kb/s / 1 509 kb/s
Channel(s) : 6 channels
Channel positions : Front: L C R, Side: L R, LFE
Sampling rate : 48.0 kHz
Frame rate : 93.750 FPS (512 SPF)
Bit depth : 16 bits
Compression mode : Lossless / Lossy
Stream size : 1.63 GiB (9%)
Title : Есарев
Language : Russian
Default : No
Forced : No

Audio #3
ID : 4
Format : AC-3
Format/Info : Audio Coding 3
Format settings, Endianness : Big
Codec ID : A_AC3
Duration : 1 h 46 min
Bit rate mode : Constant
Bit rate : 640 kb/s
Channel(s) : 6 channels
Channel positions : Front: L C R, Side: L R, LFE
Sampling rate : 48.0 kHz
Frame rate : 31.250 FPS (1536 SPF)
Bit depth : 16 bits
Compression mode : Lossy
Stream size : 489 MiB (2%)
Title : Оригинал
Language : English
Service kind : Complete Main
Default : No
Forced : No

Text #1
ID : 5
Format : UTF-8
Codec ID : S_TEXT/UTF8
Codec ID/Info : UTF-8 Plain Text
Duration : 1 h 41 min
Bit rate : 59 b/s
Count of elements : 726
Stream size : 44.5 KiB (0%)
Title : Full
Language : Russian
Default : No
Forced : No

Text #2
ID : 6
Format : UTF-8
Codec ID : S_TEXT/UTF8
Codec ID/Info : UTF-8 Plain Text
Duration : 1 h 38 min
Bit rate : 34 b/s
Count of elements : 723
Stream size : 24.7 KiB (0%)
Title : Full
Language : English
Default : No
Forced : No

Menu
00:00:00.000 : ru:Человеческая бесчеловечность
00:07:33.161 : ru:Бесчувственное общество
00:11:42.285 : ru:Заблудший Клерик
00:15:02.443 : ru:Велика цена
00:22:07.326 : ru:Отсуствие дозы
00:25:27.234 : ru:Существование и цель
00:30:56.980 : ru:Пробуждение эмоций
00:36:50.156 : ru:Слезы и жалость
00:44:50.563 : ru:Сомневающийся отец?
00:47:25.678 : ru:Большая ошибка
00:56:29.011 : ru:"Он эмоциональный преступник"
01:02:55.230 : ru:Вопросы к Мэри
01:06:12.635 : ru:Контакт с Сопротивлением
01:14:44.939 : ru:Сожжение
01:23:32.591 : ru:Нечего скрывать
01:28:56.998 : ru:"Не без неожиданностей"
01:34:23.157 : ru:Расплата
01:40:16.552 : ru:Финальные титры

pb.wtf



Скачать Эквилибриум через торрент http://i79.fastpic.ru/big/2016/0416/42/a4ee6dab31163672523aedb797428442.png Скачать фильм Эквилибриум через торрент бесплантно в хорошем качестве Описание: Действие происходит в будущем, когда люди лишены возможности выражать какие-то эмоции, потому, что они… запрещены. Это — та цена, ... 10 10 4
Торрент: Зарегистрирован [2019-04-11 07:45] · скачан: 36 раз
Статус: √ проверено
Размер: 19.12 GB
Как cкачать? Как скачать Эквилибриум через торрент | qTorrent

% Раздел Тема Автор DL S | L
Фильмы [HD 720p, 1080p] (Хороший звук DUB, MVO) [ 10.29 GB ] Эквилибриум / Equilibrium [2002 BDRip 1080p] -=BIGBOSS=- Скачать
1 | 0
Фильмы (HD 720p, 1080p) (48-60 fps) [ 4.57 GB ] Эквилибриум / Equilibrium [2002 BDRip 720p ] 60fps от R.G. HD-Films slaventi-69 Скачать
2 | 0
Фильмы [HD 720p, 1080p] (Хороший звук DUB, MVO) [ 5.54 GB ] Эквилибриум / Equilibrium [2002 BDRip 1080p HEVC + AVO] Мичман37 Скачать
4 | 0
Фильмы с авторской озвучкой [ 1.46 GB ] Эквилибриум / Equilibrium [2002 BDRip] [Open Matte] [AVO] killermax2013 Скачать
1 | 0
Фильмы 2001-2005 [ 2.18 GB ] Эквилибриум / Equilibrium [2002 BDRip ] kostantin Скачать
1 | 0
Фильмы 2001-2005 [ 1.46 GB ] Эквилибриум / Equilibrium [2002 HDRip] Tyler_Durden Скачать
2 | 0
Фильмы [HD 720p, 1080p] (Хороший звук DUB, MVO) [ 4.41 GB ] Эквилибриум / Equilibrium [2002 BDRip 720p лицензия + MVO] Дрю Скачать
1 | 0

28-11-2019 20:33  

Отключить всю рекламу на сайте

    Дорогой пользователь! Огромная просьба, поблагодарите релизера, оцените раздачу и оставьте свои комментарий, если Вы скачали Эквилибриум через торрент бесплатно! Внесите свою лепту в развитие PiratBit!
    Комментировать посты могут только пользователи прошедшие не сложную регистрацию
    Показать сообщения:    

    Эквилибриум через торрент
    Скачать бесплатно Эквилибриум
    Эквилибриум скачать торрент
    Эквилибриум смотреть онлайн
    Cкачать фильм Эквилибриум бесплатно
    Эквилибриум скачать торрент в хорошем качестве
    Эквилибриум смотреть онлайн бесплатно в хорошем качестве


    Вы не можете начинать темы
    Вы не можете отвечать на сообщения
    Вы не можете редактировать свои сообщения
    Вы не можете удалять свои сообщения
    Вы не можете голосовать в опросах
    Вы не можете прикреплять файлы к сообщениям
    Вы можете скачивать файлы