Ссылка на приватное зеркало нашего сайта всего за 1$. Внимание количество ограничено!!!

2 сезон

iTunes

1 сезон

1

2 сезон

2 сезон

iTunes

1 сезон

RePack

30

Ultimate

ВАЖНО

ИГРА 18+

pack

RePack

MK11
pack

Забери бонус

RePack

jed

!!Акция!!

Alien_Rage

RePack

fifa19

RePack

Assassins Creed: Odyssey

RePack

NEED FOR SPEED™ PAYBACK

4 сезон

9 сезон

Бесстыжие 9 сезон

Все сериалы

все сериалы на PB.wtf

RePack

FAR CRY 5
  

Хроники хищных городов / Mortal Engines (Кристиан Риверс) [2018, фантастика, фэнтези, боевик, триллер, приключения, BD Remux 1080p] MVO [HDRezka Studio] +DUB (rus, ukr) [Лицензия] pb.wtf

Хроники хищных городов через торрент pb.wtf

Размер: 32.24 GB | Добавлен: 1 год 7 мес. назад | Торрент скачан:49 раз
Скачать  

11-04-2019 10:49 Хроники хищных городов Скачать торрент  

Хроники хищных городов / Mortal Engines Год выпуска: 2018
Страна: Новая Зеландия, США
Жанр: фантастика, фэнтези, боевик, триллер, приключения
Продолжительность: 02:08:21
Перевод:

#1: Дублированный | Лицензия
#2: Профессиональный многоголосый | HDRezka Studio

Субтитры: Русские (Forced, full), английские

Режиссер: Кристиан Риверс

rating

В ролях:

Хера Хильмар (Hester Shaw), Роберт Шиэн (Tom Natsworthy), Хьюго Уивинг (Thaddeus Valentine), Джихе (Anna Fang), Ронан Рафтери (Bevis Pod), Лейла Джордж (Katherine Valentine), Патрик Мэлахайд (Magnus Crome), Стивен Лэнг (Shrike), Колин Сэлмон (Chudleigh Pomeroy), Марк Митчинсон (Vambrace), Реге Пейдж (Captain Khora), Меник Гунератне (Sathya)
Описание:

Прошли тысячелетия после того, как мир настиг апокалипсис. Человечество адаптировалось и теперь живет по новым правилам. Гигантские движущиеся мегаполисы рассекают пустоши и поглощают маленькие города ради ресурсов. Том Нэтсуорти из нижнего уровня великого Лондона оказывается в смертельной опасности, когда на его пути появляется скрывающаяся от закона бунтарка Эстер Шоу. Они не должны были встретиться, но им суждено изменить будущее.

Качество: BD Remux 1080p
Формат: MKV

Видео: MPEG-4 AVC, 1920x1080, 29.9 Mbit/s, 23.976 fps
Аудио: 48 kHz, AC3, 5.1, 640 Kbps | Дублированный | RUS |
Аудио#2: 48 kHz, AC3, 2.0, 192 Kbps | Профессиональный многоголосый | RUS |
Аудио#3: 48 kHz, AC3, 2.0, 192 Kbps | Дублированный | UKR |
Аудио#4: 48 kHz, TrueHD, 7.1, 4519 Kbps | Оригинал | ENG |
Аудио#5: 48 kHz, AC3, 5.1, 448 Kbps | Оригинал | ENG |
скриншот  скриншот  скриншот  скриншот  скриншот  

General
Unique ID : 249296965460435292287822415132103250168 (0xBB8CD95D78B5D917FA514AABD98790F8)
Complete name : D:Video111Mortal.Engines.2018.Lic.BDREMUX.1080p.seleZen.mkv
Format : Matroska
Format version : Version 4
File size : 32.2 GiB
Duration : 2 h 8 min
Overall bit rate mode : Variable
Overall bit rate : 36.0 Mb/s
Movie name : Mortal Engines 2018 from селезень
Encoded date : UTC 2019-04-11 10:38:56
Writing application : mkvmerge v32.0.0 ('Astral Progressions') 64-bit
Writing library : libebml v1.3.7 + libmatroska v1.5.0
Cover : Yes
Attachments : cover.jpg

Video
ID : 1
Format : AVC
Format/Info : Advanced Video Codec
Format profile : High@L4.1
Format settings : CABAC / 2 Ref Frames
Format settings, CABAC : Yes
Format settings, ReFrames : 2 frames
Codec ID : V_MPEG4/ISO/AVC
Duration : 2 h 8 min
Bit rate mode : Variable
Bit rate : 29.9 Mb/s
Width : 1 920 pixels
Height : 1 080 pixels
Display aspect ratio : 16:9
Frame rate mode : Constant
Frame rate : 23.976 (24000/1001) FPS
Color space : YUV
Chroma subsampling : 4:2:0
Bit depth : 8 bits
Scan type : Progressive
Bits/(Pixel*Frame) : 0.601
Stream size : 26.8 GiB (83%)
Language : English
Default : Yes
Forced : No

Audio #1
ID : 2
Format : AC-3
Format/Info : Audio Coding 3
Commercial name : Dolby Digital
Codec ID : A_AC3
Duration : 2 h 8 min
Bit rate mode : Constant
Bit rate : 640 kb/s
Channel(s) : 6 channels
Channel layout : L R C LFE Ls Rs
Sampling rate : 48.0 kHz
Frame rate : 31.250 FPS (1536 SPF)
Bit depth : 16 bits
Compression mode : Lossy
Stream size : 588 MiB (2%)
Title : Dub [License]
Language : Russian
Service kind : Complete Main
Default : Yes
Forced : Yes

Audio #2
ID : 3
Format : AC-3
Format/Info : Audio Coding 3
Commercial name : Dolby Digital
Codec ID : A_AC3
Duration : 2 h 8 min
Bit rate mode : Constant
Bit rate : 192 kb/s
Channel(s) : 2 channels
Channel layout : L R
Sampling rate : 44.1 kHz
Frame rate : 28.711 FPS (1536 SPF)
Bit depth : 16 bits
Compression mode : Lossy
Delay relative to video : 18 ms
Stream size : 176 MiB (1%)
Title : MVO [HDRezka Studio]
Language : Russian
Service kind : Complete Main
Default : No
Forced : No

Audio #3
ID : 4
Format : AC-3
Format/Info : Audio Coding 3
Commercial name : Dolby Digital
Codec ID : A_AC3
Duration : 2 h 8 min
Bit rate mode : Constant
Bit rate : 192 kb/s
Channel(s) : 2 channels
Channel layout : L R
Sampling rate : 48.0 kHz
Frame rate : 31.250 FPS (1536 SPF)
Bit depth : 16 bits
Compression mode : Lossy
Stream size : 176 MiB (1%)
Title : Dub
Language : Ukrainian
Service kind : Complete Main
Default : No
Forced : No

Audio #4
ID : 5
Format : MLP FBA 16-ch
Format/Info : Meridian Lossless Packing FBA with 16-channel presentation
Commercial name : Dolby TrueHD with Dolby Atmos
Codec ID : A_TRUEHD
Duration : 2 h 8 min
Bit rate mode : Variable
Bit rate : 4 519 kb/s
Maximum bit rate : 7 425 kb/s
Channel(s) : 8 channels
Channel layout : L R C LFE Ls Rs Lb Rb
Sampling rate : 48.0 kHz
Frame rate : 1 200.000 FPS (40 SPF)
Compression mode : Lossless
Stream size : 4.05 GiB (13%)
Title : Original
Language : English
Default : No
Forced : No
Number of dynamic objects : 11
Bed channel count : 1 channel
Bed channel configuration : LFE

Audio #5
ID : 6
Format : AC-3
Format/Info : Audio Coding 3
Commercial name : Dolby Digital
Codec ID : A_AC3
Duration : 2 h 8 min
Bit rate mode : Constant
Bit rate : 448 kb/s
Channel(s) : 6 channels
Channel layout : L R C LFE Ls Rs
Sampling rate : 48.0 kHz
Frame rate : 31.250 FPS (1536 SPF)
Bit depth : 16 bits
Compression mode : Lossy
Stream size : 411 MiB (1%)
Language : English
Service kind : Complete Main
Default : No
Forced : No

Text #1
ID : 7
Format : UTF-8
Codec ID : S_TEXT/UTF8
Codec ID/Info : UTF-8 Plain Text
Duration : 1 h 43 min
Bit rate : 1 b/s
Count of elements : 19
Stream size : 852 Bytes (0%)
Title : Forced
Language : Russian
Default : Yes
Forced : Yes

Text #2
ID : 8
Format : UTF-8
Codec ID : S_TEXT/UTF8
Codec ID/Info : UTF-8 Plain Text
Duration : 1 h 57 min
Bit rate : 74 b/s
Count of elements : 1332
Stream size : 63.8 KiB (0%)
Title : Full
Language : Russian
Default : No
Forced : No

Text #3
ID : 9
Format : UTF-8
Codec ID : S_TEXT/UTF8
Codec ID/Info : UTF-8 Plain Text
Duration : 1 h 33 min
Bit rate : 0 b/s
Count of elements : 10
Stream size : 396 Bytes (0%)
Title : Forced
Language : Ukrainian
Default : No
Forced : No

Text #4
ID : 10
Format : UTF-8
Codec ID : S_TEXT/UTF8
Codec ID/Info : UTF-8 Plain Text
Duration : 1 h 57 min
Bit rate : 38 b/s
Count of elements : 1074
Stream size : 33.0 KiB (0%)
Title : Full
Language : English
Default : No
Forced : No

Menu
00:00:00.000 : :绗?01 绔?
00:09:24.397 : :绗?02 绔?
00:16:13.306 : :绗?03 绔?
00:24:20.626 : :绗?04 绔?
00:31:24.591 : :绗?05 绔?
00:35:53.068 : :绗?06 绔?
00:41:27.819 : :绗?07 绔?
00:44:53.816 : :绗?08 绔?
00:50:16.805 : :绗?09 绔?
00:54:21.175 : :绗?10 绔?
01:00:51.398 : :绗?11 绔?
01:07:12.070 : :绗?12 绔?
01:11:12.852 : :绗?13 绔?
01:17:37.736 : :绗?14 绔?
01:25:25.620 : :绗?15 绔?
01:33:30.396 : :绗?16 绔?
01:39:28.546 : :绗?17 绔?
01:47:58.263 : :绗?18 绔?
01:52:11.558 : :绗?19 绔?
01:58:33.523 : :绗?20 绔?

pb.wtf



Скачать Хроники хищных городов через торрент http://img10.lostpic.net/2019/03/07/a0ab32bcbcd411ef24e820884ea9b2df.jpg Скачать фильм Хроники хищных городов через торрент бесплантно в хорошем качестве Описание: Прошли тысячелетия после того, как мир настиг апокалипсис. Человечество адаптировалось и теперь живет по новым правилам. ... 10 10 4
Info! Золотая раздача, скачанное не засчитывается.
Торрент: Зарегистрирован [2019-04-11 10:49] · скачан: 49 раз
Статус: √ проверено
Размер: 32.24 GB
Как cкачать? Как скачать Хроники хищных городов через торрент | qTorrent

% Раздел Тема Автор DL S | L
Ultra HD (UHD: 2K, 4K, 8K) — видео сверхвысокой чёткости [ 85.41 GB ] Хроники хищных городов / Mortal Engines [2018 UHD Blu-ray 2160p] [] [Dolby Vision] sheker187 Скачать
1 | 0
Ultra HD (UHD: 2K, 4K, 8K) — видео сверхвысокой чёткости [ 63.46 GB ] Хроники хищных городов / Mortal Engines [2018 UHD BDRemux 2160p] [] [Dolby Vision TV] sheker187 Скачать
1 | 0
Фильмы 2018 [DVDrip, WEB-DLRip, HDrip] (DUB, MVO) [ 2.18 GB ] Хроники хищных городов / Mortal Engines [2018 BDRip] - [] Twi7ter Скачать
2 | 0
Ultra HD (UHD: 2K, 4K, 8K) — видео сверхвысокой чёткости [ 23.03 GB ] Хроники хищных городов / Mortal Engines [2018 UHD BDRip 2160p] [SDR] DUB [] + MVO [HDRezka Studio] sheker187 Скачать
2 | 0
Ultra HD (UHD: 2K, 4K, 8K) — видео сверхвысокой чёткости [ 13.29 GB ] Хроники хищных городов / Mortal Engines [2018 UHD BDRip 2160p] DUB [] + MVO [HDRezka Studio] sheker187 Скачать
2 | 0
Фильмы 2018 [DVDrip, WEB-DLRip, HDrip] (DUB, MVO) [ 2.59 GB ] Хроники хищных городов / Mortal Engines [2018 BDRip-AVC] DUB [] - ExKinoRay Enigma2010 Скачать
7 | 0
Фильмы 2018 [DVDrip, WEB-DLRip, HDrip] (DUB, MVO) [ 2.49 GB ] Хроники хищных городов / Mortal Engines [2018 BDRip-AVC] MVO [HDRezka Studio] +DUB [] bober100 Скачать
1 | 0

28-11-2019 20:33  

Отключить всю рекламу на сайте

    Дорогой пользователь! Огромная просьба, поблагодарите релизера, оцените раздачу и оставьте свои комментарий, если Вы скачали Хроники хищных городов через торрент бесплатно! Внесите свою лепту в развитие PiratBit!
    Комментировать посты могут только пользователи прошедшие не сложную регистрацию
    Показать сообщения:    

    Хроники хищных городов через торрент
    Скачать бесплатно Хроники хищных городов
    Хроники хищных городов скачать торрент
    Хроники хищных городов смотреть онлайн
    Cкачать фильм Хроники хищных городов бесплатно
    Хроники хищных городов скачать торрент в хорошем качестве
    Хроники хищных городов смотреть онлайн бесплатно в хорошем качестве


    Вы не можете начинать темы
    Вы не можете отвечать на сообщения
    Вы не можете редактировать свои сообщения
    Вы не можете удалять свои сообщения
    Вы не можете голосовать в опросах
    Вы не можете прикреплять файлы к сообщениям
    Вы можете скачивать файлы