Ссылка на приватное зеркало всего за 1$. Внимание количество ограничено!!!

iTunes

1+1

iTunes

мы

WEB-DL

1

iTunes

Чернобыль

iTunes

Ральф против интернета

Лицензия

ПШазам

Лицензия

Оно 2

Лицензия

30
pack

Вам бонус

ВАЖНО

!!Акция!!

Alien_RageХит недели

RePack

Resident Evil 21

ИГРА 18+

pack

RePack

jed

!!Акция!!

Alien_Rage

RePack

fifa19

RePack

Assassins Creed: Odyssey

RePack

NEED FOR SPEED™ PAYBACK

3 сезон

9 сезон

Бесстыжие 9 сезон

Все сериалы

все сериалы на PB.wtf

RePack

FAR CRY 5
Ребята, катастрофически не хватает 1900р. для оплаты серверов за Октябрь (всвязи с блокировками трафик упал в 3 раза), 1-2р., выручайте.
  

Хроники хищных городов / Mortal Engines (Кристиан Риверс) [2018, фантастика, фэнтези, боевик, триллер, приключения, BDRip-AVC] MVO [HDRezka Studio] +DUB [Лицензия] pb.wtf

Хроники хищных городов через торрент pb.wtf

Размер: 2.49 GB | Добавлен: 8 мес. назад | Торрент скачан:43 раза
Скачать  

11-04-2019 11:40 Хроники хищных городов Скачать торрент  

Хроники хищных городов / Mortal Engines Год выпуска: 2018
Страна: Новая Зеландия, США
Жанр: фантастика, фэнтези, боевик, триллер, приключения
Продолжительность: 02:08:21
Перевод:

#1: Дублированный | Лицензия
#2: Профессиональный многоголосый | HDRezka Studio

Субтитры: Русские (форс., полные)

Режиссер: Кристиан Риверс

rating

В ролях:

Хера Хильмар (Hester Shaw), Роберт Шиэн (Tom Natsworthy), Хьюго Уивинг (Thaddeus Valentine), Джихе (Anna Fang), Ронан Рафтери (Bevis Pod), Лейла Джордж (Katherine Valentine), Патрик Мэлахайд (Magnus Crome), Стивен Лэнг (Shrike), Колин Сэлмон (Chudleigh Pomeroy), Марк Митчинсон (Vambrace), Реге Пейдж (Captain Khora), Меник Гунератне (Sathya)
Описание:

Прошли тысячелетия после того, как мир настиг апокалипсис. Человечество адаптировалось и теперь живет по новым правилам. Гигантские движущиеся мегаполисы рассекают пустоши и поглощают маленькие города ради ресурсов. Том Нэтсуорти из нижнего уровня великого Лондона оказывается в смертельной опасности, когда на его пути появляется скрывающаяся от закона бунтарка Эстер Шоу. Они не должны были встретиться, но им суждено изменить будущее.

Качество: BDRip-AVC
Формат: MKV

Видео: 1152x482 (2.40:1), 23,976 fps, x264 ~2 139 kbps avg, 0.161 bit/pixel
Аудио#1: 48 kHz, AC3 Dolby Digital, 3/2 (L,C,R,l,r) + LFE ch, ~448.00 kbps avg | RUS (Лицензия)
Аудио#2: 48 kHz, AC3 Dolby Digital, 2 (L,R) ch, ~192.00 kbps avg | RUS (HDRezka Studio)
скриншот  скриншот  скриншот  скриншот  скриншот  

Общее
Уникальный идентификатор : 275011148631915056685314413552738528331 (0xCEE5387A7D833C43FFFAC5F6C0206C4B)
Полное имя : D:Mortal.Engines.2018.BDRip(AVC).OlLanDGroup.mkv
Формат : Matroska
Версия формата : Version 4 / Version 2
Размер файла : 2,49 Гбайт
Продолжительность : 2 ч. 8 м.
Общий поток : 2781 Кбит/сек
Название фильма : Mortal Engines (2018) #TorpedoUK#
Дата кодирования : UTC 2019-04-11 11:32:04
Программа кодирования : mkvmerge v29.0.0 ('Like It Or Not') 64-bit
Библиотека кодирования : libebml v1.3.6 + libmatroska v1.4.9

Видео
Идентификатор : 1
Формат : AVC
Формат/Информация : Advanced Video Codec
Профиль формата : High@L4.1
Параметр CABAC формата : Да
Параметр ReFrames формата : 10 кадров
Идентификатор кодека : V_MPEG4/ISO/AVC
Продолжительность : 2 ч. 8 м.
Битрейт : 2139 Кбит/сек
Ширина : 1152 пикселя
Высота : 482 пикселя
Соотношение сторон : 2,40:1
Режим частоты кадров : Постоянный
Частота кадров : 23,976 (24000/1001) кадра/сек
Цветовое пространство : YUV
Субдискретизация насыщенности : 4:2:0
Битовая глубина : 8 бит
Тип развёртки : Прогрессивная
Бит/(Пиксели*Кадры) : 0.161
Размер потока : 1,92 Гбайт (77%)
Библиотека кодирования : x264 core 146 r2538 121396c
Настройки программы : cabac=1 / ref=10 / deblock=1:-3:-3 / analyse=0x3:0x113 / me=umh / subme=11 / psy=1 / psy_rd=0.99:0.04 / mixed_ref=1 / me_range=48 / chroma_me=1 / trellis=2 / 8x8dct=1 / cqm=0 / deadzone=21,11 / fast_pskip=1 / chroma_qp_offset=-3 / threads=6 / lookahead_threads=1 / sliced_threads=0 / nr=0 / decimate=1 / interlaced=0 / bluray_compat=0 / constrained_intra=0 / bframes=11 / b_pyramid=2 / b_adapt=2 / b_bias=0 / direct=3 / weightb=1 / open_gop=0 / weightp=2 / keyint=240 / keyint_min=23 / scenecut=40 / intra_refresh=0 / rc_lookahead=40 / rc=2pass / mbtree=0 / bitrate=2139 / ratetol=1.0 / qcomp=0.60 / qpmin=0 / qpmax=69 / qpstep=4 / cplxblur=20.0 / qblur=0.5 / vbv_maxrate=50000 / vbv_bufsize=62500 / nal_hrd=none / filler=0 / ip_ratio=1.40 / pb_ratio=1.30 / aq=1:1.00
Язык : English
Default : Да
Forced : Нет

Аудио #1
Идентификатор : 2
Формат : AC-3
Формат/Информация : Audio Coding 3
Расширение режима : CM (complete main)
Параметр Endianness формата : Big
Идентификатор кодека : A_AC3
Продолжительность : 2 ч. 8 м.
Вид битрейта : Постоянный
Битрейт : 448 Кбит/сек
Каналы : 6 каналов
Расположение каналов : Front: L C R, Side: L R, LFE
Частота : 48,0 КГц
Частота кадров : 31,250 кадров/сек (1536 spf)
Битовая глубина : 16 бит
Метод сжатия : С потерями
Размер потока : 411 Мбайт (16%)
Заголовок : DUB [License]
Язык : Russian
Default : Да
Forced : Нет

Аудио #2
Идентификатор : 3
Формат : AC-3
Формат/Информация : Audio Coding 3
Расширение режима : CM (complete main)
Параметр Endianness формата : Big
Идентификатор кодека : A_AC3
Продолжительность : 2 ч. 8 м.
Вид битрейта : Постоянный
Битрейт : 192 Кбит/сек
Каналы : 2 канала
Расположение каналов : Front: L R
Частота : 48,0 КГц
Частота кадров : 31,250 кадров/сек (1536 spf)
Битовая глубина : 16 бит
Метод сжатия : С потерями
Размер потока : 176 Мбайт (7%)
Заголовок : MVO [HDRezka Studio]
Язык : Russian
Default : Нет
Forced : Нет

Текст #1
Идентификатор : 4
Формат : UTF-8
Идентификатор кодека : S_TEXT/UTF8
Идентификатор кодека/Информация : UTF-8 Plain Text
Продолжительность : 1 ч. 43 м.
Битрейт : 1 бит/сек
Count of elements : 19
Размер потока : 852 байт (0%)
Заголовок : Forced
Язык : Russian
Default : Да
Forced : Нет

Текст #2
Идентификатор : 5
Формат : UTF-8
Идентификатор кодека : S_TEXT/UTF8
Идентификатор кодека/Информация : UTF-8 Plain Text
Продолжительность : 1 ч. 57 м.
Битрейт : 74 бит/сек
Count of elements : 1332
Размер потока : 63,8 Кбайт (0%)
Заголовок : Full
Язык : Russian
Default : Нет
Forced : Нет

Меню
00:00:00.000 : en:Chapter 01
00:09:24.396 : en:Chapter 02
00:16:13.305 : en:Chapter 03
00:24:20.625 : en:Chapter 04
00:31:24.591 : en:Chapter 05
00:35:53.067 : en:Chapter 06
00:41:27.818 : en:Chapter 07
00:44:53.815 : en:Chapter 08
00:50:16.805 : en:Chapter 09
00:54:21.174 : en:Chapter 10
01:00:51.397 : en:Chapter 11
01:07:12.069 : en:Chapter 12
01:11:12.850 : en:Chapter 13
01:17:37.736 : en:Chapter 14
01:25:25.620 : en:Chapter 15
01:33:30.396 : en:Chapter 16
01:39:28.545 : en:Chapter 17
01:47:58.263 : en:Chapter 18
01:52:11.558 : en:Chapter 19
01:58:33.523 : en:Chapter 20

pb.wtf



Скачать Хроники хищных городов через торрент https://i109.fastpic.ru/big/2019/0308/2a/d3ffaf0847345f779f24f0f2d666f12a.jpg Скачать фильм Хроники хищных городов через торрент бесплантно в хорошем качестве Описание: Прошли тысячелетия после того, как мир настиг апокалипсис. Человечество адаптировалось и теперь живет по новым правилам. ... 10 10 4
Торрент: Зарегистрирован [2019-04-11 11:40] · скачан: 43 раз
Статус: √ проверено
Размер: 2.49 GB
Как cкачать? Как скачать Хроники хищных городов через торрент | qTorrent

% Раздел Тема Автор DL S | L
Ultra HD (UHD: 2K, 4K, 8K) — видео сверхвысокой чёткости [ 85.41 GB ] Хроники хищных городов / Mortal Engines [2018 UHD Blu-ray 2160p] [] [Dolby Vision] sheker187 Скачать
1 | 0
Ultra HD (UHD: 2K, 4K, 8K) — видео сверхвысокой чёткости [ 63.46 GB ] Хроники хищных городов / Mortal Engines [2018 UHD BDRemux 2160p] [] [Dolby Vision TV] sheker187 Скачать
1 | 0
Фильмы 2018 [DVDrip, WEB-DLRip, HDrip] (DUB, MVO) [ 2.18 GB ] Хроники хищных городов / Mortal Engines [2018 BDRip] - [] Twi7ter Скачать
4 | 0
3D Фильмы [ 17.06 GB ] Хроники хищных городов в 3Д / Mortal Engines 3D [2018 BDRip 1080p] OverUnder / Вертикальная стереопара serega768 Скачать
1 | 0
Ultra HD (UHD: 2K, 4K, 8K) — видео сверхвысокой чёткости [ 23.03 GB ] Хроники хищных городов / Mortal Engines [2018 UHD BDRip 2160p] [SDR] DUB [] + MVO [HDRezka Studio] sheker187 Скачать
1 | 0
Ultra HD (UHD: 2K, 4K, 8K) — видео сверхвысокой чёткости [ 13.29 GB ] Хроники хищных городов / Mortal Engines [2018 UHD BDRip 2160p] DUB [] + MVO [HDRezka Studio] sheker187 Скачать
1 | 0
Фильмы 2018 [DVDrip, WEB-DLRip, HDrip] (DUB, MVO) [ 2.59 GB ] Хроники хищных городов / Mortal Engines [2018 BDRip-AVC] DUB [] - ExKinoRay Enigma2010 Скачать
15 | 1

28-11-2019 20:33  

Отключить всю рекламу на сайте

    Дорогой пользователь! Огромная просьба, поблагодарите релизера, оцените раздачу и оставьте свои комментарий, если Вы скачали Хроники хищных городов через торрент бесплатно! Внесите свою лепту в развитие PiratBit!
    Комментировать посты могут только пользователи прошедшие не сложную регистрацию
    Показать сообщения:    

    Хроники хищных городов через торрент
    Скачать бесплатно Хроники хищных городов
    Хроники хищных городов скачать торрент
    Хроники хищных городов смотреть онлайн
    Cкачать фильм Хроники хищных городов бесплатно
    Хроники хищных городов скачать торрент в хорошем качестве
    Хроники хищных городов смотреть онлайн бесплатно в хорошем качестве


    Вы не можете начинать темы
    Вы не можете отвечать на сообщения
    Вы не можете редактировать свои сообщения
    Вы не можете удалять свои сообщения
    Вы не можете голосовать в опросах
    Вы не можете прикреплять файлы к сообщениям
    Вы можете скачивать файлы