Мега распродажа FORZA HORIZON 4 ULTIMATE+ВСЕ DLC+ОНЛАЙН всего за 499р. 349 руб. (супер цена). Внимание количество ограничено!!!

Лицензия

30

iTunes

мы

iTunes

1

1 сезон

Чернобыль

1 сезон

Ральф против интернета

MVO

Покемон. Детектив Пикачу

8 сезон

Игра престолов

iTunes

1+1

ИГРА 18+

pack

ВАЖНО

!!Акция!!

Alien_RageХит недели

RePack

Resident Evil 21
pack

RePack

Metro:Exodus

!!Акция!!

Alien_Rage

RePack

fifa19

RePack

Assassins Creed: Odyssey

RePack

NEED FOR SPEED™ PAYBACK

3 сезон

9 сезон

Бесстыжие 9 сезон

Все сериалы

все сериалы на PB.wtf

RePack

FAR CRY 5
Ребята, катастрофически не хватает 2730р. для оплаты серверов за МАЙ (всвязи с блокировками трафик упал в 3 раза), 1-2р., выручайте.
  

Чем мы заняты в тени / What We Do in the Shadows / Сезон: 1 / Серии: 1-10 из 10 (Джемейн Клемент, Джейсон Уолинер, Тайка Вайтити) [2019, ужасы, WEB-DL 720p] DVO [Кубик в Кубе] pb.wtf

Чем мы заняты в тени через торрент pb.wtf

Раздают: 2 [ 2 KB/s ]
Размер: 10.94 GB | Добавлен: 4 д. назад | Торрент скачан:9 раз
Скачать  

11-04-2019 12:42 Чем мы заняты в тени Скачать торрент  

Чем мы заняты в тени / What We Do in the Shadows
«***»
Страна: США
Год выпуска: 2019
Жанр: комедия, ужасы
Продолжительность: ~ 00:30:00 серия
Перевод: Профессиональный (двухголосый) | Кубик в Кубе*
Субтитры: английские

Режиссер: Джемейн Клемент, Джейсон Уолинер, Тайка Вайтити

В ролях:

Кайван Новак, Харви Гильен, Натасия Деметриу, Мэтт Берри, Марк Прокш, Вероника Словиковска, Крис Перфетти, Александра Хенриксон, Шиван Фэллон и др.

Описание:

Три главных героя делят дом, решают бытовые конфликты, ищут любовь — и свежую кровь, без которой им, вампирам, не прожить.



Качество: WEB-DL 720p
Формат: MKV

Видео: 1280х720 (16:9) | X264 | ~5700 kbps | 23.976 fps
Аудио №1: AC3, 48,0 kHz, 6 ch, 640 kbps | Кубик в Кубе*
Аудио №2: AC3, 48,0 kHz, 6 ch, 640 kbps | Original

Общее
Уникальный идентификатор : 215585644136508299668823529393220055810 (0xA23048E62DCBF970ADFD5FFC3AC97302)
Полное имя : D:\What.We.Do.in.the.Shadows.720p.WEB.CasStudio.TV\What.We.Do.in.the.Shadows.S01E01.Pilot.720p.WEBDL.KvK.CasStudio.TV.mkv
Формат : Matroska
Версия формата : Version 4 / Version 2
Размер файла : 1,50 Гбайт
Продолжительность : 30 м. 23 с.
Общий поток : 7070 Кбит/сек
Название фильма : What We Do in the Shadows 01x01 (Pilot) - release by messafan for CasStudio.TV
Дата кодирования : UTC 2019-03-31 18:30:52
Программа кодирования : mkvmerge v6.7.0 ('Back to the Ground') 64bit built on Jan 8 2014 15:10:52
Библиотека кодирования : libebml v1.3.0 + libmatroska v1.4.1

Видео
Идентификатор : 1
Формат : AVC
Формат/Информация : Advanced Video Codec
Профиль формата : High@L3.1
Параметр CABAC формата : Да
Параметр RefFrames формата : 4 кадра
Идентификатор кодека : V_MPEG4/ISO/AVC
Продолжительность : 30 м. 23 с.
Вид битрейта : Постоянный
Битрейт : 5649 Кбит/сек
Номинальный битрейт : 6000 Кбит/сек
Ширина : 1280 пикселей
Высота : 720 пикселей
Соотношение сторон : 16:9
Режим частоты кадров : Постоянный
Частота кадров : 23,976 (24000/1001) кадра/сек
Цветовое пространство : YUV
Субдискретизация насыщенности : 4:2:0
Битовая глубина : 8 бит
Тип развёртки : Прогрессивная
Бит/(Пиксели*Кадры) : 0.256
Размер потока : 1,20 Гбайт (80%)
Default : Да
Forced : Нет
Цветовой диапазон : Limited
Основные цвета : BT.709
Характеристики трансфера : BT.709
Коэффициенты матрицы : BT.709

Аудио #1
Идентификатор : 2
Формат : AC-3
Формат/Информация : Audio Coding 3
Расширение режима : CM (complete main)
Параметр Endianness формата : Big
Идентификатор кодека : A_AC3
Продолжительность : 30 м. 23 с.
Вид битрейта : Постоянный
Битрейт : 640 Кбит/сек
Каналы : 6 каналов
Расположение каналов : Front: L C R, Side: L R, LFE
Частота : 48,0 КГц
Частота кадров : 31,250 кадров/сек (1536 spf)
Метод сжатия : С потерями
Размер потока : 139 Мбайт (9%)
Заголовок : KvK DD5.1 @ 640kbps
Язык : Russian
Default : Да
Forced : Нет

Аудио #2
Идентификатор : 3
Формат : AC-3
Формат/Информация : Audio Coding 3
Расширение режима : CM (complete main)
Параметр Endianness формата : Big
Идентификатор кодека : A_AC3
Продолжительность : 30 м. 23 с.
Вид битрейта : Постоянный
Битрейт : 640 Кбит/сек
Каналы : 6 каналов
Расположение каналов : Front: L C R, Side: L R, LFE
Частота : 48,0 КГц
Частота кадров : 31,250 кадров/сек (1536 spf)
Метод сжатия : С потерями
Размер потока : 139 Мбайт (9%)
Заголовок : English DD5.1 @ 640kbps
Язык : English
Default : Нет
Forced : Нет

Текст #1
Идентификатор : 4
Формат : UTF-8
Идентификатор кодека : S_TEXT/UTF8
Идентификатор кодека/Информация : UTF-8 Plain Text
Заголовок : Eng sub
Язык : English
Default : Нет
Forced : Нет

Текст #2
Идентификатор : 5
Формат : UTF-8
Идентификатор кодека : S_TEXT/UTF8
Идентификатор кодека/Информация : UTF-8 Plain Text
Заголовок : English SDH
Язык : English
Default : Нет
Forced : Нет

При каждом добавлении создаётся новый торрент. Чтобы начать докачку новой серии, пользователям необходимо сделать следующее:
- остановить скачивание;
- удалить старый торрент у себя из клиента (старые серии удалять не надо);
- скачать новый торрент и запустить его у себя в клиенте вместо старого, при этом указать клиенту путь в старую папку, куда и должно происходить скачивание новых серий.
pb.wtf



Скачать Чем мы заняты в тени через торрент https://b.radikal.ru/b24/1904/5f/631d4525fcc5.jpg Скачать фильм Чем мы заняты в тени через торрент бесплантно в хорошем качестве Описание:Три главных героя делят дом, решают бытовые конфликты, ищут любовь — и свежую кровь, без которой им, вампирам, не прожить. ... 10 10 5
Info! Золотая раздача, скачанное не засчитывается.
Торрент: Зарегистрирован [2019-06-13 05:07] · скачан: 9 раз
Статус: √ проверено
Размер: 10.94 GB
Как cкачать? Как скачать Чем мы заняты в тени через торрент | qTorrent

% Раздел Тема Автор DL S | L
Зарубежные сериалы [ 2.87 GB ] Чем мы заняты в тени / What We Do in the Shadows / Сезон: 1 / Серии: 1-10 из 10 [2019 WEB-DLRip] DVO [Good People] bober100 Скачать
1 | 0
Зарубежные сериалы [ 16.93 GB ] Чем мы заняты в тени / Реальные упыри / What We Do in the Shadows / Сезон: 1 / Серии: 1-10 из 10 [2019 WEB-DL 1080p] 2xMVO [LostFilm Ozz] bober100 Скачать
2 | 0
Зарубежные сериалы [ 2.94 GB ] Чем мы заняты в тени / Реальные упыри / What We Do in the Shadows / Сезон: 1 / Серии: 1-10 из 10 [2019 WEB-DLRip] MVO [LostFilm] bober100 Скачать
3 | 0
Зарубежные сериалы [ 3.1 GB ] Чем мы заняты в тени / What We Do in the Shadows / Сезон: 1 / Серии: 1-10 из 10 [2019 WEB-DLRip] MVO bober100 Скачать
2 | 0
Зарубежные сериалы [ 5.57 GB ] Чем мы заняты в тени / What We Do in the Shadows / Сезон: 1 / Серии: 1-10 из 10 [2019 WEB-DL 720p] MVO [Jaskier] bober100 Скачать
2 | 0


>> Регистрируемся здесь <<






Отзывы и комментарии о схеме читаем и пишем здесь: ---> Отзывы и комментарии о схеме

Новые благодарочки в телеграм довольных пользователей:
скриншот   скриншот   скриншот   скриншот   скриншот
    Дорогой пользователь! Огромная просьба, поблагодарите релизера, оцените раздачу и оставьте свои комментарий, если Вы скачали Чем мы заняты в тени через торрент бесплатно! Внесите свою лепту в развитие PiratBit!
    Комментировать посты могут только пользователи прошедшие не сложную регистрацию
    Показать сообщения:    

    Чем мы заняты в тени через торрент
    Скачать бесплатно Чем мы заняты в тени
    Чем мы заняты в тени скачать торрент
    Чем мы заняты в тени смотреть онлайн
    Cкачать фильм Чем мы заняты в тени бесплатно
    Чем мы заняты в тени скачать торрент в хорошем качестве
    Чем мы заняты в тени смотреть онлайн бесплатно в хорошем качестве


    Вы не можете начинать темы
    Вы не можете отвечать на сообщения
    Вы не можете редактировать свои сообщения
    Вы не можете удалять свои сообщения
    Вы не можете голосовать в опросах
    Вы не можете прикреплять файлы к сообщениям
    Вы можете скачивать файлы