Мега распродажа FORZA HORIZON 4 ULTIMATE+ВСЕ DLC+ОНЛАЙН всего за 499р. 349 руб. (супер цена). Внимание количество ограничено!!!

iTunes

1+1

iTunes

мы

iTunes

1

1 сезон

Чернобыль

1 сезон

Ральф против интернета

Лицензия

ПШазам

8 сезон

Игра престолов

Лицензия

30
pack

ВАЖНО

!!Акция!!

Alien_RageХит недели

RePack

Resident Evil 21

ИГРА 18+

pack

RePack

Metro:Exodus

!!Акция!!

Alien_Rage

RePack

fifa19

RePack

Assassins Creed: Odyssey

RePack

NEED FOR SPEED™ PAYBACK

3 сезон

9 сезон

Бесстыжие 9 сезон

Все сериалы

все сериалы на PB.wtf

RePack

FAR CRY 5
Ребята, катастрофически не хватает 2730р. для оплаты серверов за ИЮНЬ (всвязи с блокировками трафик упал в 3 раза), 1-2р., выручайте.
  

Ходячие мертвецы / The Walking Dead / Сезоны: 1-9 / Серии: 1-131 из 131 (Грег Никотеро, Майкл Е. Сатраземис, Эрнест Р. Дикерсон) [2010-2019, Ужасы, триллер, драма, BDRip, WEB-DLRip] MVO [LostFilm] pb.wtf

Ходячие мертвецы через торрент pb.wtf

Раздают: 5 [ 1 MB/s ] Качают: 1 [ 0 KB/s ]
Размер: 75.11 GB | Добавлен: 3 мес. 8 д. назад | Торрент скачан:52 раза
Скачать  

11-04-2019 15:45 Ходячие мертвецы Скачать торрент  

Ходячие мертвецы / The Walking Dead Год выпуска: 2010-2019
Страна: США
Жанр: Ужасы, триллер, драма, приключения, фантастика
Продолжительность: ~00:43:00
Перевод: Профессиональный (многоголосый закадровый) | LostFilm
Субтитры: нет

Режиссёр: Грег Никотеро, Майкл Е. Сатраземис, Эрнест Р. Дикерсон

В ролях:

Эндрю Линкольн, Норман Ридус, Лорен Коэн, Джеффри Дин Морган, Стивен Юн, Чендлер Риггз, Сара Уэйн Кэллис, Джон Бернтал, Данай Джекесай Гурира, Мелисса Сюзанн МакБрайд, Том Пэйн, Дэвид Моррисси, Майкл Рукер, Джеффри ДеМанн, Майкл Кадлитц, Эмили Кинни, Сонеква Мартин, Джош МакДермитт, Аланна Мастерсон, Сет Гиллиам, Ленни Джеймс, Стивен Огг, Лори Холден, Александра Брекенридж, Дэн Фоглер, Поллианна МакИнтош, Това Фелдшух

Описание:

Сериал рассказывает историю жизни семьи шерифа после того, как «зомби» — эпидемия апокалиптических масштабов захлестнула земной шар. Шериф Рик Граймс путешествует со своей семьей и небольшой группой выживших в поисках безопасного места для жизни. Но постоянный страх смерти каждый день приносит тяжелые потери, заставляя героев почувствовать глубины человеческой жестокости. Рик пытается спасти свою семью, и открывает для себя, что всепоглощающий страх тех, кто выжил, может быть опаснее бессмысленных мертвецов, бродящих по земле.



Качество: BDRip - 1-7, WEB-DLRip - 8-9 сезон | чистый видеоряд |
Формат: AVI

Видео: XviD, 720x400, 23.976 fps, ~1500 kbps
Аудио #1: 48 kHz, MPEG Layer 3, 2 ch, ~128.00 kbps | Rus
Аудио #2: 48 kHz, MPEG Layer 3, 2 ch, ~128.00 kbps | Eng


Реклама: Отсутствует
Format : AVI
Format/Info : Audio Video Interleave
File size : 568 MiB
Duration : 43 min 37 s
Overall bit rate : 1 819 kb/s
Writing application : VirtualDubMod 1.5.10.2 (build 2540/release)
Writing library : VirtualDubMod build 2540/release

Video
ID : 0
Format : MPEG-4 Visual
Format profile : Advanced Simple@L5
Format settings : BVOP2 / Custom Matrix
Format settings, BVOP : 2
Format settings, QPel : No
Format settings, GMC : No warppoints
Format settings, Matrix : Custom
Codec ID : XVID
Codec ID/Hint : XviD
Duration : 43 min 37 s
Bit rate : 1 549 kb/s
Width : 720 pixels
Height : 400 pixels
Display aspect ratio : 16:9
Frame rate : 23.976 (24000/1001) FPS
Color space : YUV
Chroma subsampling : 4:2:0
Bit depth : 8 bits
Scan type : Progressive
Compression mode : Lossy
Bits/(Pixel*Frame) : 0.224
Stream size : 483 MiB (85%)
Writing library : XviD 73

Audio #1
ID : 1
Format : MPEG Audio
Format version : Version 1
Format profile : Layer 3
Format settings : Joint stereo / MS Stereo
Codec ID : 55
Codec ID/Hint : MP3
Duration : 43 min 37 s
Bit rate mode : Constant
Bit rate : 128 kb/s
Channel(s) : 2 channels
Sampling rate : 48.0 kHz
Compression mode : Lossy
Stream size : 39.9 MiB (7%)
Alignment : Split accross interleaves
Interleave, duration : 42 ms (1.00 video frame)
Interleave, preload duratio : 500 ms

Audio #2
ID : 2
Format : MPEG Audio
Format version : Version 1
Format profile : Layer 3
Format settings : Joint stereo / MS Stereo
Codec ID : 55
Codec ID/Hint : MP3
Duration : 43 min 37 s
Bit rate mode : Constant
Bit rate : 128 kb/s
Channel(s) : 2 channels
Sampling rate : 48.0 kHz
Compression mode : Lossy
Stream size : 39.9 MiB (7%)
Alignment : Split accross interleaves
Interleave, duration : 42 ms (1.00 video frame)
Interleave, preload duratio : 500 ms
скриншот  скриншот  скриншот  скриншот  скриншот  
pb.wtf



Скачать Ходячие мертвецы через торрент https://i109.fastpic.ru/big/2019/0411/f0/14ab346b014540e48f96f1be76dddcf0.png Скачать фильм Ходячие мертвецы через торрент бесплантно в хорошем качестве Описание: Сериал рассказывает историю жизни семьи шерифа после того, как «зомби» — эпидемия апокалиптических масштабов захлестнула земной ... 10 10 6
Info! Золотая раздача, скачанное не засчитывается.
Торрент: Зарегистрирован [2019-04-11 15:45] · скачан: 52 раз
Статус: √ проверено
Размер: 75.11 GB
Как cкачать? Как скачать Ходячие мертвецы через торрент | qTorrent


>> Регистрируемся здесь <<






Отзывы и комментарии о схеме читаем и пишем здесь: ---> Отзывы и комментарии о схеме

Новые благодарочки в телеграм довольных пользователей:
скриншот   скриншот   скриншот   скриншот   скриншот

11-04-2019 17:17 Ходячие мертвецы Скачать торрент  

Спасибо! pb.wtf



    Дорогой пользователь! Огромная просьба, поблагодарите релизера, оцените раздачу и оставьте свои комментарий, если Вы скачали Ходячие мертвецы через торрент бесплатно! Внесите свою лепту в развитие PiratBit!
    Комментировать посты могут только пользователи прошедшие не сложную регистрацию
    Показать сообщения:    

    Ходячие мертвецы через торрент
    Скачать бесплатно Ходячие мертвецы
    Ходячие мертвецы скачать торрент
    Ходячие мертвецы смотреть онлайн
    Cкачать фильм Ходячие мертвецы бесплатно
    Ходячие мертвецы скачать торрент в хорошем качестве
    Ходячие мертвецы смотреть онлайн бесплатно в хорошем качестве


    Вы не можете начинать темы
    Вы не можете отвечать на сообщения
    Вы не можете редактировать свои сообщения
    Вы не можете удалять свои сообщения
    Вы не можете голосовать в опросах
    Вы не можете прикреплять файлы к сообщениям
    Вы можете скачивать файлы