Ссылка на приватное зеркало нашего сайта всего за 1$. Внимание количество ограничено!!!

2 сезон

iTunes

1 сезон

1

iTunes

iTunes

iTunes

1 сезон

RePack

30

ИГРА 18+

pack

ВАЖНО

!!Акция!!

Alien_RageХит недели

RePack

MK11
pack

Забери бонус

RePack

jed

!!Акция!!

Alien_Rage

RePack

fifa19

RePack

Assassins Creed: Odyssey

RePack

NEED FOR SPEED™ PAYBACK

4 сезон

9 сезон

Бесстыжие 9 сезон

Все сериалы

все сериалы на PB.wtf

RePack

FAR CRY 5
  

Человек-паук: Через вселенные / Spider-Man: Into the Spider-Verse (Боб Персичетти, Питер Рэмзи, Родни Ротман) [2018, мультфильм, фантастика, боевик, комедия, приключения, семейный, BDRip-AVC] DUB [Лицензия] pb.wtf

Человек-паук: Через вселенные через торрент pb.wtf

Размер: 2.22 GB | Добавлен: 1 год 6 мес. назад | Торрент скачан:94 раза
Скачать  

11-04-2019 17:54 Человек-паук: Через вселенные Скачать торрент  

Человек-паук: Через вселенные / Spider-Man: Into the Spider-Verse
Год выпуска: 2018
Страна: США
Жанр: мультфильм, фантастика, боевик, комедия, приключения, семейный
Продолжительность: 01:56:50
Перевод: Дублированный | Лицензия
Субтитры: Русские (форс., полные), английские (полные, SDH)

Режиссер: Боб Персичетти, Питер Рэмзи, Родни Ротман

rating

В ролях:

Шамеик Мур (Miles Morales, озвучка), Джейк Джонсон (Peter B. Parker, озвучка), Хейли Стайнфелд (Gwen Stacy, озвучка), Махершала Али (Uncle Aaron, озвучка), Брайан Тайри Генри (Jefferson Davis, озвучка), Лили Томлин (Aunt May, озвучка), Луна Лорен Велес (Rio Morales, озвучка), Зои Кравиц (Mary Jane, озвучка), Джон Малэйни (Spider-Ham, озвучка), Кимико Гленн (Peni Parker, озвучка), Николас Кейдж (Spider-Man Noir, озвучка), Кэтрин Хан (Doc Ock, озвучка)
Описание:

Мы всё знаем о Питере Паркере. Он спас город, влюбился, а потом спасал город снова и снова... Но все это - в нашем измерении. А что если в результате работы гигантского коллайдера откроется окно из одного измерения в другое? Найдется ли в нем свой Человек-паук? И как он будет выглядеть? Приготовьтесь к тому, что в разных вселенных могут быть разные Люди-пауки и однажды им придется собраться вместе для борьбы с почти непобедимым врагом.

Качество: BDRip-AVC
Формат: MKV

Видео: 1024x428 (2.40:1), 23,976 fps, x264 ~1 768 kbps avg, 0.168 bit/pixel
Аудио#1: 48 kHz, AC3 Dolby Digital Plus, 3/2 (L,C,R,l,r) + LFE ch, ~448.00 kbps avg | RUS (Лицензия)
Аудио#2: 48 kHz, AC3 Dolby Digital Plus, 3/2 (L,C,R,l,r) + LFE ch, ~448.00 kbps avg | ENG
скриншот  скриншот  скриншот  скриншот  скриншот  

Общее
Уникальный идентификатор : 271407740915265524754619656734595437144 (0xCC2F3AC2EB22C4D0B304984EF1455258)
Полное имя : D:Spider.Man.Into.The.Spider.Verse.2018.BDRip(AVC).OlLanDGroup.mkv
Формат : Matroska
Версия формата : Version 4 / Version 2
Размер файла : 2,22 Гбайт
Продолжительность : 1 ч. 56 м.
Общий поток : 2725 Кбит/сек
Название фильма : Spider-Man.Into.the.Spider-Verse.2018 #TorpedoUK#
Дата кодирования : UTC 2019-04-11 16:51:43
Программа кодирования : mkvmerge v29.0.0 ('Like It Or Not') 64-bit
Библиотека кодирования : libebml v1.3.6 + libmatroska v1.4.9

Видео
Идентификатор : 1
Формат : AVC
Формат/Информация : Advanced Video Codec
Профиль формата : High@L4.1
Параметр CABAC формата : Да
Параметр ReFrames формата : 10 кадров
Идентификатор кодека : V_MPEG4/ISO/AVC
Продолжительность : 1 ч. 56 м.
Битрейт : 1825 Кбит/сек
Ширина : 1024 пикселя
Высота : 428 пикселей
Соотношение сторон : 2,40:1
Режим частоты кадров : Постоянный
Частота кадров : 23,976 (24000/1001) кадра/сек
Цветовое пространство : YUV
Субдискретизация насыщенности : 4:2:0
Битовая глубина : 8 бит
Тип развёртки : Прогрессивная
Бит/(Пиксели*Кадры) : 0.174
Размер потока : 1,49 Гбайт (67%)
Библиотека кодирования : x264 core 146 r2538 121396c
Настройки программы : cabac=1 / ref=10 / deblock=1:-3:-3 / analyse=0x3:0x113 / me=umh / subme=11 / psy=1 / psy_rd=1.00:0.03 / mixed_ref=1 / me_range=48 / chroma_me=1 / trellis=2 / 8x8dct=1 / cqm=0 / deadzone=21,11 / fast_pskip=1 / chroma_qp_offset=-3 / threads=6 / lookahead_threads=1 / sliced_threads=0 / nr=0 / decimate=1 / interlaced=0 / bluray_compat=0 / constrained_intra=0 / bframes=11 / b_pyramid=2 / b_adapt=2 / b_bias=0 / direct=3 / weightb=1 / open_gop=0 / weightp=2 / keyint=240 / keyint_min=23 / scenecut=40 / intra_refresh=0 / rc_lookahead=40 / rc=2pass / mbtree=0 / bitrate=1825 / ratetol=1.0 / qcomp=0.60 / qpmin=0 / qpmax=69 / qpstep=4 / cplxblur=20.0 / qblur=0.5 / vbv_maxrate=50000 / vbv_bufsize=62500 / nal_hrd=none / filler=0 / ip_ratio=1.40 / pb_ratio=1.30 / aq=1:1.00
Язык : English
Default : Да
Forced : Нет

Аудио #1
Идентификатор : 2
Формат : AC-3
Формат/Информация : Audio Coding 3
Расширение режима : CM (complete main)
Параметр Endianness формата : Big
Идентификатор кодека : A_AC3
Продолжительность : 1 ч. 56 м.
Вид битрейта : Постоянный
Битрейт : 448 Кбит/сек
Каналы : 6 каналов
Расположение каналов : Front: L C R, Side: L R, LFE
Частота : 48,0 КГц
Частота кадров : 31,250 кадров/сек (1536 spf)
Битовая глубина : 16 бит
Метод сжатия : С потерями
Размер потока : 374 Мбайт (16%)
Заголовок : DUB [License]
Язык : Russian
Default : Да
Forced : Нет

Аудио #2
Идентификатор : 3
Формат : AC-3
Формат/Информация : Audio Coding 3
Расширение режима : CM (complete main)
Параметр Endianness формата : Big
Идентификатор кодека : A_AC3
Продолжительность : 1 ч. 56 м.
Вид битрейта : Постоянный
Битрейт : 448 Кбит/сек
Каналы : 6 каналов
Расположение каналов : Front: L C R, Side: L R, LFE
Частота : 48,0 КГц
Частота кадров : 31,250 кадров/сек (1536 spf)
Битовая глубина : 16 бит
Метод сжатия : С потерями
Размер потока : 374 Мбайт (16%)
Заголовок : [Original]
Язык : English
Default : Нет
Forced : Нет

Текст #1
Идентификатор : 4
Формат : UTF-8
Идентификатор кодека : S_TEXT/UTF8
Идентификатор кодека/Информация : UTF-8 Plain Text
Продолжительность : 1 ч. 55 м.
Битрейт : 2 бит/сек
Count of elements : 64
Размер потока : 2,17 Кбайт (0%)
Заголовок : Forced
Язык : Russian
Default : Да
Forced : Нет

Текст #2
Идентификатор : 5
Формат : UTF-8
Идентификатор кодека : S_TEXT/UTF8
Идентификатор кодека/Информация : UTF-8 Plain Text
Продолжительность : 1 ч. 55 м.
Битрейт : 90 бит/сек
Count of elements : 1524
Размер потока : 76,4 Кбайт (0%)
Заголовок : Full
Язык : Russian
Default : Нет
Forced : Нет

Текст #3
Идентификатор : 6
Формат : UTF-8
Идентификатор кодека : S_TEXT/UTF8
Идентификатор кодека/Информация : UTF-8 Plain Text
Продолжительность : 1 ч. 56 м.
Битрейт : 71 бит/сек
Count of elements : 1851
Размер потока : 61,0 Кбайт (0%)
Заголовок : Full
Язык : English
Default : Нет
Forced : Нет

Текст #4
Идентификатор : 7
Формат : UTF-8
Идентификатор кодека : S_TEXT/UTF8
Идентификатор кодека/Информация : UTF-8 Plain Text
Продолжительность : 1 ч. 56 м.
Битрейт : 81 бит/сек
Count of elements : 2273
Размер потока : 69,7 Кбайт (0%)
Заголовок : SDH
Язык : English
Default : Нет
Forced : Нет

Меню
00:00:00.000 : en:Chapter 01
00:09:03.793 : en:Chapter 02
00:14:04.719 : en:Chapter 03
00:18:51.714 : en:Chapter 04
00:29:39.027 : en:Chapter 05
00:34:14.636 : en:Chapter 06
00:40:34.432 : en:Chapter 07
00:44:22.827 : en:Chapter 08
00:48:06.884 : en:Chapter 09
00:58:45.855 : en:Chapter 10
01:06:04.460 : en:Chapter 11
01:09:55.483 : en:Chapter 12
01:20:00.003 : en:Chapter 13
01:24:54.923 : en:Chapter 14
01:33:33.399 : en:Chapter 15
01:55:26.920 : en:Chapter 16

pb.wtf



Скачать Человек-паук: Через вселенные через торрент https://b.radikal.ru/b40/1903/83/60f4bf0efc82.jpg Скачать фильм Человек-паук: Через вселенные через торрент бесплантно в хорошем качестве Описание: Мы всё знаем о Питере Паркере. Он спас город, влюбился, а потом спасал город снова и снова... Но все это - в нашем измерении. А ... 9.8 10 4
Торрент: Зарегистрирован [2019-04-11 17:54] · скачан: 94 раз
Статус: √ проверено
Размер: 2.22 GB
Как cкачать? Как скачать Человек-паук: Через вселенные через торрент | qTorrent

% Раздел Тема Автор DL S | L
Мультфильмы (48-60 fps) [ 17.86 GB ] Человек-паук: Через вселенные / Spider-Man: Into the Spider-Verse [2018 мультфильм BDRip 1080p 60 fps] sheker187 Скачать
1 | 0
Зарубежные Мультфильмы (BDRip 1080p, 720p, Blu-ray, BD-Remux) [ 5.76 GB ] Человек-паук: Через вселенные / Spider-Man: Into the Spider-Verse [2018 мультфильм BDRip 720p] [Локализованная версия] DUB [] - ExKinoRay Enigma2010 Скачать
22 | 2
Ultra HD (UHD: 2K, 4K, 8K) [ 26.09 GB ] Человек-паук: Через вселенные / Spider-Man: Into the Spider-Verse [2018 мультфильм UHD BDRip 2160p] [SDR] DUB [] sheker187 Скачать
1 | 0
Иностранные мультфильмы [ 1.46 GB ] Человек-паук: Через вселенные / Spider-Man: Into the Spider-Verse [2018 мультфильм BDRip] - [] [Локализованная версия] Twi7ter Скачать
6 | 0
Ultra HD (UHD: 2K, 4K, 8K) [ 16.3 GB ] Человек-паук: Через вселенные / Spider-Man: Into the Spider-Verse [2018 мультфильм UHD BDRip 2160p] DUB [] sheker187 Скачать
1 | 0
3D Мультфильмы [ 14.62 GB ] Человек-паук: Через вселенные 3Д / Spider-Man: Into the Spider-Verse 3D [2018 мультфильм BDRip 1080p] [Half OverUnder / Вертикальная анаморфная стереопара] DUB [] bober100 Скачать
1 | 0
Иностранные мультфильмы [ 2.18 GB ] Человек-паук: Через вселенные / Spider-Man: Into the Spider-Verse [2018 мультфильм BDRip] - [] [Локализованная версия] Twi7ter Скачать
1 | 0

28-11-2019 20:33  

Отключить всю рекламу на сайте

    Дорогой пользователь! Огромная просьба, поблагодарите релизера, оцените раздачу и оставьте свои комментарий, если Вы скачали Человек-паук: Через вселенные через торрент бесплатно! Внесите свою лепту в развитие PiratBit!
    Комментировать посты могут только пользователи прошедшие не сложную регистрацию
    Показать сообщения:    

    Человек-паук: Через вселенные через торрент
    Скачать бесплатно Человек-паук: Через вселенные
    Человек-паук: Через вселенные скачать торрент
    Человек-паук: Через вселенные смотреть онлайн
    Cкачать фильм Человек-паук: Через вселенные бесплатно
    Человек-паук: Через вселенные скачать торрент в хорошем качестве
    Человек-паук: Через вселенные смотреть онлайн бесплатно в хорошем качестве


    Вы не можете начинать темы
    Вы не можете отвечать на сообщения
    Вы не можете редактировать свои сообщения
    Вы не можете удалять свои сообщения
    Вы не можете голосовать в опросах
    Вы не можете прикреплять файлы к сообщениям
    Вы можете скачивать файлы