Ссылка на приватное зеркало нашего сайта всего за 1$. Внимание количество ограничено!!!

2 сезон

iTunes

1 сезон

1

2 сезон

2 сезон

iTunes

1 сезон

RePack

30

Ultimate

ВАЖНО

ИГРА 18+

pack

RePack

MK11
pack

Забери бонус

RePack

jed

!!Акция!!

Alien_Rage

RePack

fifa19

RePack

Assassins Creed: Odyssey

RePack

NEED FOR SPEED™ PAYBACK

4 сезон

9 сезон

Бесстыжие 9 сезон

Все сериалы

все сериалы на PB.wtf

RePack

FAR CRY 5
  

Русская невеста / The Russian Bride (Майкл С. Ойеда) [2019, Ужасы, триллер, WEB-DL 1080p] MVO [HDRezka Studio] pb.wtf

Русская невеста через торрент pb.wtf

Раздают: 1 [ 0 KB/s ]
Размер: 7.09 GB | Добавлен: 1 год 7 мес. назад | Торрент скачан:112 раз
Скачать  

11-04-2019 19:46 Русская невеста Скачать торрент  

Русская невеста / The Russian Bride
Год выпуска: 2019
Страна: США
Жанр: Ужасы, триллер
Продолжительность: 01:41:24
Перевод: Профессиональный (многоголосый) | HDRezka Studio
Субтитры: Английские (полные, SDH)

Режиссер: Майкл С. Ойеда

rating

В ролях:

Корбин Бернсен, Оксана Орлан, Кристина Пименова, Лиза Гудман, Майкл Роберт Брэндон, Элисон Корман, Кинэн Джонстон, Грегори О'Галлахер, Ефим Сомен, Кеннет Г. Боден

Описание:

Мать-одиночка Нина желает переехать в США, чтобы дать своей дочери Даше лучшую жизнь. В интернете она знакомится с Карлом — богатым вдовцом и бывшим пластическим хирургом, готовым обеспечить Нине и Даше безбедное будущее. Вскоре женщина вместе с дочерью прилетает в Америку, где их ожидает новый глава семьи, живущий в роскошном особняке. Несмотря на весьма странную прислугу, Нина, окруженная заботой и лаской Карла, не может нарадоваться чудесными изменениями в своей жизни, совершенно не подозревая о истинных планах коварного супруга...

Качество: WEB-DL 1080p
Формат: MKV

Видео: 1920x872 (2.2:1), 23,976 fps, x264 ~9 183 kbps avg, 0.229 bit/pixel
Аудио#1: 48 kHz, AC3 Dolby Digital, 2 (L,R) ch, ~192.00 kbps avg | RUS (HDRezka Studio)
Аудио#2: 48 kHz, E-AC3 Dolby Digital Plus, 3/2 (L,C,R,l,r) + LFE ch, ~640.00 kbps avg | ENG
скриншот  скриншот  скриншот  скриншот  

Общее
Уникальный идентификатор : 181549054436567863161921155882891487547 (0x88951376CC2F2BF337E87BA118C6293B)
Полное имя : D:The.Russian.Bride.2019.AMZN.WEB-DL(1080p).OlLanDGroup.mkv
Формат : Matroska
Версия формата : Version 4 / Version 2
Размер файла : 7,09 Гбайт
Продолжительность : 1 ч. 41 м.
Общий поток : 10,0 Мбит/сек
Название фильма : The.Russian.Bride.2019 #TorpedoUK#
Дата кодирования : UTC 2019-04-11 19:24:28
Программа кодирования : mkvmerge v29.0.0 ('Like It Or Not') 64-bit
Библиотека кодирования : libebml v1.3.6 + libmatroska v1.4.9

Видео
Идентификатор : 1
Формат : AVC
Формат/Информация : Advanced Video Codec
Профиль формата : High@L4
Параметр CABAC формата : Да
Параметр ReFrames формата : 4 кадра
Идентификатор кодека : V_MPEG4/ISO/AVC
Продолжительность : 1 ч. 41 м.
Вид битрейта : Постоянный
Битрейт : 9183 Кбит/сек
Номинальный битрейт : 10000 Кбит/сек
Ширина : 1920 пикселей
Высота : 872 пикселя
Соотношение сторон : 2,2:1
Соотношение сторон в оригинале : 2,2:1
Режим частоты кадров : Постоянный
Частота кадров : 23,976 (24000/1001) кадра/сек
Цветовое пространство : YUV
Субдискретизация насыщенности : 4:2:0
Битовая глубина : 8 бит
Тип развёртки : Прогрессивная
Бит/(Пиксели*Кадры) : 0.229
Размер потока : 6,50 Гбайт (92%)
Default : Да
Forced : Нет
Цветовой диапазон : Limited
Основные цвета : BT.709
Характеристики трансфера : BT.709
Коэффициенты матрицы : BT.709

Аудио #1
Идентификатор : 2
Формат : AC-3
Формат/Информация : Audio Coding 3
Расширение режима : CM (complete main)
Параметр Endianness формата : Big
Идентификатор кодека : A_AC3
Продолжительность : 1 ч. 41 м.
Вид битрейта : Постоянный
Битрейт : 192 Кбит/сек
Каналы : 2 канала
Расположение каналов : Front: L R
Частота : 48,0 КГц
Частота кадров : 31,250 кадров/сек (1536 spf)
Битовая глубина : 16 бит
Метод сжатия : С потерями
Размер потока : 139 Мбайт (2%)
Заголовок : MVO [HDRezka Studio]
Язык : Russian
Default : Да
Forced : Нет

Аудио #2
Идентификатор : 3
Формат : E-AC-3
Формат/Информация : Enhanced Audio Coding 3
Параметр Endianness формата : Big
Идентификатор кодека : A_EAC3
Продолжительность : 1 ч. 41 м.
Вид битрейта : Постоянный
Битрейт : 640 Кбит/сек
Каналы : 6 каналов
Расположение каналов : Front: L C R, Side: L R, LFE
Частота : 48,0 КГц
Частота кадров : 187,500 кадров/сек (256 spf)
Метод сжатия : С потерями
Размер потока : 464 Мбайт (6%)
Заголовок : [Original]
Язык : English
Default : Нет
Forced : Нет

Текст #1
Идентификатор : 4
Формат : UTF-8
Идентификатор кодека : S_TEXT/UTF8
Идентификатор кодека/Информация : UTF-8 Plain Text
Продолжительность : 1 ч. 33 м.
Битрейт : 35 бит/сек
Count of elements : 994
Размер потока : 24,7 Кбайт (0%)
Заголовок : Full
Язык : English
Default : Нет
Forced : Нет

Текст #2
Идентификатор : 5
Формат : UTF-8
Идентификатор кодека : S_TEXT/UTF8
Идентификатор кодека/Информация : UTF-8 Plain Text
Продолжительность : 1 ч. 37 м.
Битрейт : 45 бит/сек
Count of elements : 1440
Размер потока : 32,1 Кбайт (0%)
Заголовок : SDH
Язык : English
Default : Нет
Forced : Нет

pb.wtf



Скачать Русская невеста через торрент https://i109.fastpic.ru/big/2019/0411/9d/9ec8b874147dfe92dab7329cfd855c9d.jpg Скачать фильм Русская невеста через торрент бесплантно в хорошем качестве Описание: Мать-одиночка Нина желает переехать в США, чтобы дать своей дочери Даше лучшую жизнь. В интернете она знакомится с Карлом — ... 8.7 10 9
Торрент: Зарегистрирован [2019-04-11 19:46] · скачан: 112 раз
Статус: T временная
Размер: 7.09 GB
Как cкачать? Как скачать Русская невеста через торрент | qTorrent

% Раздел Тема Автор DL S | L
Фильмы (WEB-DL 720p, 1080p) [ 3.13 GB ] Русская невеста / The Russian Bride [2019 WEB-DL 720p] MVO bober100 Скачать
1 | 0
Фильмы 2019-2020 [DVDrip, WEB-DLRip, HDrip] (DUB, MVO) [ 1.42 GB ] Русская невеста / The Russian Bride [2019 BDRip] MVO Twi7ter Скачать
2 | 0
Фильмы 2019-2020 [DVDrip, WEB-DLRip, HDrip] (DUB, MVO) [ 746 MB ] Русская невеста / The Russian Bride [2019 HDRip] MVO bober100 Скачать
2 | 0
Фильмы [HD 720p, 1080p] (Хороший звук DUB, MVO) [ 7.67 GB ] Русская невеста / The Russian Bride [2019 BDRip 1080p] MVO bober100 Скачать
1 | 0
Фильмы [HD 720p, 1080p] (Хороший звук DUB, MVO) [ 3.5 GB ] Русская невеста / The Russian Bride [2019 BDRip 720p] MVO bober100 Скачать
1 | 0
Фильмы 2019-2020 [DVDrip, WEB-DLRip, HDrip] (DUB, MVO) [ 1.46 GB ] Русская невеста / The Russian Bride [2019 BDRip] MVO bober100 Скачать
2 | 0
Фильмы (WEB-DL 720p, 1080p) [ 7.23 GB ] Русская невеста / The Russian Bride [2019 WEB-DL 1080p] MVO bober100 Скачать
2 | 0

28-11-2019 20:33  

Отключить всю рекламу на сайте

17-04-2019 18:24 Русская невеста Скачать торрент  

трешовый шедевр на 7 из 10 затянуто конечно местами и сюжета вроде и нету как такового но все же досмотрелpb.wtf



01-05-2019 09:07 Русская невеста Скачать торрент  

очень понравился фильм.не ожидал.для любителей жанра обязательно к просмотру. pb.wtf



10-06-2020 19:26 Русская невеста Скачать торрент  

говняное говнище pb.wtf



    Дорогой пользователь! Огромная просьба, поблагодарите релизера, оцените раздачу и оставьте свои комментарий, если Вы скачали Русская невеста через торрент бесплатно! Внесите свою лепту в развитие PiratBit!
    Комментировать посты могут только пользователи прошедшие не сложную регистрацию
    Показать сообщения:    

    Русская невеста через торрент
    Скачать бесплатно Русская невеста
    Русская невеста скачать торрент
    Русская невеста смотреть онлайн
    Cкачать фильм Русская невеста бесплатно
    Русская невеста скачать торрент в хорошем качестве
    Русская невеста смотреть онлайн бесплатно в хорошем качестве


    Вы не можете начинать темы
    Вы не можете отвечать на сообщения
    Вы не можете редактировать свои сообщения
    Вы не можете удалять свои сообщения
    Вы не можете голосовать в опросах
    Вы не можете прикреплять файлы к сообщениям
    Вы можете скачивать файлы