Ссылка на приватное зеркало нашего сайта всего за 1$. Внимание количество ограничено!!!

2 сезон

iTunes

1 сезон

1

2 сезон

2 сезон

iTunes

1 сезон

RePack

30

Ultimate

ВАЖНО

ИГРА 18+

pack

RePack

MK11
pack

Забери бонус

RePack

jed

!!Акция!!

Alien_Rage

RePack

fifa19

RePack

Assassins Creed: Odyssey

RePack

NEED FOR SPEED™ PAYBACK

4 сезон

9 сезон

Бесстыжие 9 сезон

Все сериалы

все сериалы на PB.wtf

RePack

FAR CRY 5
  

Падение Ордена / Knightfall / Сезон: 2 / Серии: 1-4 из 10 (Дуглас Маккиннон) [2019, боевик, драма, военный, WEB-DL 1080p] MVO [TVShows] pb.wtf

Падение Ордена через торрент pb.wtf

Размер: 9.64 GB | Добавлен: 1 год 7 мес. назад | Торрент скачан:19 раз
Скачать  

11-04-2019 20:45 Падение Ордена Скачать торрент  

Падение Ордена | Knightfall Год выпуска: 2019
Страна: США
Жанр: боевик, драма, военный, приключения
Продолжительность: ~00:44:00
Перевод: Любительский(многоголосый закадровый) | TVShows
Субтитры: отсутствуют

Режиссёр: Дуглас Маккиннон, Метин Хусейн, Дэвид Петрарка

В ролях:

Том Каллен, Падрейк Делани, Саймон Мерреллс, Оливия Росс, Джулиан Овенден, Эд Стоппард, Сабрина Бартлетт, Бобби Шофилд, Сара-Софи Бусснина, Нассер Мемарзиа и другие.

Описание:

Действие сериала разворачивается вокруг самой драгоценной и загадочной реликвии христианства — Святого Грааля, бесследно утерянного в результате падения города Акры, последнего оплота тамплиеров. Существование Ордена теперь под угрозой и зависит от того, будет ли найден Кубок Христа. На поиски Грааля отправляется предводитель тамплиеров — храбрый воин сэр Лэндри, чтобы помешать уничтожению Ордена.



Качество: WEB-DL 720p
Формат: MKV

Видео: 1920x1080 (16:9) | X264 | ~ 8418 kbps | 23.976 fps
Аудио 1: AC3, 48,0 КГц, 2 ch, 192 kbps - [RUS]
Аудио 2: Е-AC3, 48,0 КГц, 2 ch, 224 kbps - [ENG]


Реклама: отсутствует
General
Unique ID : 27297485659899701601034283982796715342 (0x14894DF3F78152F5280E750B38F9754E)
Complete name : F:\Knightfall.S02.1080p.TVShows\Knightfall.S02E01.1080p.TVShows.mkv
Format : Matroska
Format version : Version 4 / Version 2
File size : 2.80 GiB
Duration : 46 min 20 s
Overall bit rate : 8 650 kb/s
Encoded date : UTC 2019-04-07 18:59:32
Writing application : mkvmerge v31.0.0 ('Dolores In A Shoestand') 64-bit
Writing library : libebml v1.3.6 + libmatroska v1.4.9

Video
ID : 1
Format : AVC
Format/Info : Advanced Video Codec
Format profile : High@L4
Format settings : CABAC / 4 Ref Frames
Format settings, CABAC : Yes
Format settings, ReFrames : 4 frames
Codec ID : V_MPEG4/ISO/AVC
Duration : 45 min 20 s
Bit rate mode : Constant
Bit rate : 8 418 kb/s
Nominal bit rate : 10 000 kb/s
Width : 1 920 pixels
Height : 1 080 pixels
Display aspect ratio : 16:9
Frame rate mode : Constant
Frame rate : 23.976 (24000/1001) FPS
Color space : YUV
Chroma subsampling : 4:2:0
Bit depth : 8 bits
Scan type : Progressive
Bits/(Pixel*Frame) : 0.169
Stream size : 2.67 GiB (95%)
Default : Yes
Forced : No
Color range : Limited
Color primaries : BT.709
Transfer characteristics : BT.709
Matrix coefficients : BT.709

Audio #1
ID : 2
Format : AC-3
Format/Info : Audio Coding 3
Codec ID : A_AC3
Duration : 46 min 20 s
Bit rate mode : Constant
Bit rate : 192 kb/s
Channel(s) : 2 channels
Channel positions : Front: L R
Sampling rate : 48.0 kHz
Frame rate : 31.250 FPS (1536 SPF)
Bit depth : 16 bits
Compression mode : Lossy
Stream size : 63.6 MiB (2%)
Title : TVShows
Language : Russian
Service kind : Complete Main
Default : No
Forced : Yes

Audio #2
ID : 3
Format : E-AC-3
Format/Info : Enhanced Audio Coding 3
Codec ID : A_EAC3
Duration : 45 min 20 s
Bit rate mode : Constant
Bit rate : 224 kb/s
Channel(s) : 2 channels
Channel positions : Front: L R
Sampling rate : 48.0 kHz
Frame rate : 187.500 FPS (256 SPF)
Compression mode : Lossy
Stream size : 72.6 MiB (3%)
Title : Original
Language : English
Service kind : Complete Main
Default : No
Forced : No

Text
ID : 4
Format : UTF-8
Codec ID : S_TEXT/UTF8
Codec ID/Info : UTF-8 Plain Text
Duration : 45 min 7 s
Bit rate : 65 b/s
Count of elements : 823
Stream size : 21.5 KiB (0%)
Title : English
Language : English
Default : No
Forced : No
скриншот  скриншот  скриншот  
Когда раздача ведётся путём добавления новых серий, при каждом добавлении создётся новый торрент. Чтобы начать докачку новой серии, пользователям необходимо сделать следующее:
(1) остановить скачивание,
(2) удалить старый торрент у себя из клиента (старые серии удалять не надо),
(3) скачать новый торрент и запустить его у себя в клиенте вместо старого, при этом указать клиенту путь в старую папку, куда и должно происходить скачивание новых серий.
Ваш клиент при этом должен произвести хеширование (проверку) старой папки (если не производит сам - помогите ему сделать это), и будет докачивать только те серии, которых у вас ещё нет. Старые серии при этом не удаляются, а продолжают раздаваться!
Eсли вы уже удалили старые серии, то предотвратить повторную закачку старых серий можно, отжав галочку в соответсвующих местах при запуске нового торрента. По возможности, желательно не удалять старые серии как можно дольше, чтобы релизёр не столько продолжал раздавать старые серии, а смог сконцентрироваться на новых.
pb.wtf



Скачать Падение Ордена через торрент https://i109.fastpic.ru/big/2019/0330/63/b7418dd6b1ce8669f47ec6b04ca7c463.jpg Скачать фильм Падение Ордена через торрент бесплантно в хорошем качестве Описание: Действие сериала разворачивается вокруг самой драгоценной и загадочной реликвии христианства — Святого Грааля, бесследно ... 10 10 4
Торрент: Зарегистрирован [2019-04-23 06:58] · скачан: 19 раз
Статус: √ проверено
Размер: 9.64 GB
Как cкачать? Как скачать Падение Ордена через торрент | qTorrent

28-11-2019 20:33  

Отключить всю рекламу на сайте

    Дорогой пользователь! Огромная просьба, поблагодарите релизера, оцените раздачу и оставьте свои комментарий, если Вы скачали Падение Ордена через торрент бесплатно! Внесите свою лепту в развитие PiratBit!
    Комментировать посты могут только пользователи прошедшие не сложную регистрацию
    Показать сообщения:    

    Падение Ордена через торрент
    Скачать бесплатно Падение Ордена
    Падение Ордена скачать торрент
    Падение Ордена смотреть онлайн
    Cкачать фильм Падение Ордена бесплатно
    Падение Ордена скачать торрент в хорошем качестве
    Падение Ордена смотреть онлайн бесплатно в хорошем качестве


    Вы не можете начинать темы
    Вы не можете отвечать на сообщения
    Вы не можете редактировать свои сообщения
    Вы не можете удалять свои сообщения
    Вы не можете голосовать в опросах
    Вы не можете прикреплять файлы к сообщениям
    Вы можете скачивать файлы