Ссылка на приватное зеркало всего за 1$. Внимание количество ограничено!!!

iTunes

1+1

iTunes

мы

WEB-DL

1

iTunes

Чернобыль

iTunes

Ральф против интернета

Лицензия

ПШазам

Лицензия

Оно 2

Лицензия

30
pack

Вам бонус

ВАЖНО

!!Акция!!

Alien_RageХит недели

RePack

Resident Evil 21

ИГРА 18+

pack

RePack

jed

!!Акция!!

Alien_Rage

RePack

fifa19

RePack

Assassins Creed: Odyssey

RePack

NEED FOR SPEED™ PAYBACK

3 сезон

9 сезон

Бесстыжие 9 сезон

Все сериалы

все сериалы на PB.wtf

RePack

FAR CRY 5
Ребята, катастрофически не хватает 1900р. для оплаты серверов за Октябрь (всвязи с блокировками трафик упал в 3 раза), 1-2р., выручайте.
  

Лазарат / Lazarat (Уильям Кауфман) [2019, Боевик, WEB-DLRip-AVC] MVO [HDRezka Studio] - ExKinoRay pb.wtf

Лазарат через торрент pb.wtf

Раздают: 4 [ 0 KB/s ]
Размер: 1.75 GB | Добавлен: 8 мес. назад | Торрент скачан:443 раза
Скачать  

12-04-2019 04:25 Лазарат Скачать торрент  

Название: Лазарат
Оригинальное название: Lazarat (The Brave)
Год выпуска: 2019
Жанр: Боевик, триллер, криминал
Режиссер: Уильям Кауфман
В ролях: Арманд Ассанте, Луис Мэндилор, Игорь Жижикин, Равшана Куркова, Менсур Сафкиу, Радослав Парванов, Гоша Куценко, Сонни Пузикас, Иса Заруи, Иван Макаревич

Описание: Действие триллера, основанного на реальных событиях, разворачивается в самом сердце Албании. Перед зрителем предстает мир, полный наркотиков, преступности, обмана, позора и опасности, скрывающихся на каждом углу.В центре сюжета — история реального противостояния местных жителей и полиции, которая пыталась ограничить бурную деятельность селян, связанную с производству наркотиков.



Выпущено: США, Mercury Films
Продолжительность: 01:43:09
Перевод: Профессиональный (многоголосый, закадровый) | HDRezka Studio

БЕЗ КАКОЙ-ЛИБО РЕКЛАМЫ!

Формат: MKV
Качество: WEB-DLRip-AVC
Видео: MPEG-4 AVC, 1024x428 (2.40:1), 23.976 fps, 1850 Kbps, 0.176 bit/pixel
Аудио 1: 48 kHz, AC3, 2.0, 192 Kbps | MVO | RUS |
Аудио 2: 48 kHz, AC3, 5.1, 384 Kbps | Оригинал | ENG |
General
Unique ID : 202742216588647623886431249405465232538 (0x9886BB0812FC2681BAD2E91388D2849A)
Complete name : D:\Lazarat.2019.MVO.AVC.ExKinoRay.mkv
Format : Matroska
Format version : Version 2
File size : 1.75 GiB
Duration : 1 h 43 min
Overall bit rate : 2 425 kb/s
Movie name : Lazarat 2019 from ExKinoRay
Encoded date : UTC 2019-04-12 03:23:55
Writing application : mkvmerge v5.6.0 ('Kenya Kane') built on May 27 2012 16:44:04
Writing library : libebml v1.2.3 + libmatroska v1.3.0

Video
ID : 1
Format : AVC
Format/Info : Advanced Video Codec
Format profile : High@L4.1
Format settings, CABAC : Yes
Format settings, ReFrames : 11 frames
Codec ID : V_MPEG4/ISO/AVC
Duration : 1 h 43 min
Bit rate : 1 850 kb/s
Width : 1 024 pixels
Height : 428 pixels
Display aspect ratio : 2.40:1
Frame rate mode : Constant
Frame rate : 23.976 (24000/1001) FPS
Original frame rate : 23.976 (23976/1000) FPS
Color space : YUV
Chroma subsampling : 4:2:0
Bit depth : 8 bits
Scan type : Progressive
Bits/(Pixel*Frame) : 0.176
Stream size : 1.30 GiB (74%)
Title : Enigma
Writing library : x264 core 152 r2851 ba24899
Encoding settings : cabac=1 / ref=11 / deblock=1:-2:-3 / analyse=0x3:0x113 / me=umh / subme=10 / psy=1 / psy_rd=1.05:0.10 / mixed_ref=1 / me_range=32 / chroma_me=1 / trellis=2 / 8x8dct=1 / cqm=0 / deadzone=21,11 / fast_pskip=0 / chroma_qp_offset=-3 / threads=12 / lookahead_threads=3 / sliced_threads=0 / nr=0 / decimate=0 / interlaced=0 / bluray_compat=0 / constrained_intra=0 / bframes=10 / b_pyramid=2 / b_adapt=2 / b_bias=0 / direct=3 / weightb=1 / open_gop=0 / weightp=2 / keyint=240 / keyint_min=23 / scenecut=40 / intra_refresh=0 / rc=2pass / mbtree=0 / bitrate=1850 / ratetol=1.0 / qcomp=0.60 / qpmin=0 / qpmax=51 / qpstep=4 / cplxblur=20.0 / qblur=0.5 / ip_ratio=1.30 / pb_ratio=1.20 / aq=2:0.90
Default : Yes
Forced : No
Color range : Limited
Color primaries : BT.709
Transfer characteristics : BT.709
Matrix coefficients : BT.709

Audio #1
ID : 2
Format : AC-3
Format/Info : Audio Coding 3
Mode extension : CM (complete main)
Format settings, Endianness : Big
Codec ID : A_AC3
Duration : 1 h 43 min
Bit rate mode : Constant
Bit rate : 192 kb/s
Channel(s) : 2 channels
Channel positions : Front: L R
Sampling rate : 48.0 kHz
Frame rate : 31.250 FPS (1536 spf)
Compression mode : Lossy
Stream size : 142 MiB (8%)
Title : MVO (HDRezka Studio)
Language : Russian
Default : Yes
Forced : No

Audio #2
ID : 3
Format : AC-3
Format/Info : Audio Coding 3
Mode extension : CM (complete main)
Format settings, Endianness : Big
Codec ID : A_AC3
Duration : 1 h 43 min
Bit rate mode : Constant
Bit rate : 384 kb/s
Channel(s) : 6 channels
Channel positions : Front: L C R, Side: L R, LFE
Sampling rate : 48.0 kHz
Frame rate : 31.250 FPS (1536 spf)
Compression mode : Lossy
Stream size : 283 MiB (16%)
Language : English
Default : No
Forced : No
Релиз от:

Автор релиза: pb.wtf



Скачать Лазарат через торрент https://a.radikal.ru/a42/1904/dc/a541f2f11709.jpg Скачать фильм Лазарат через торрент бесплантно в хорошем качестве Описание: Действие триллера, основанного на реальных событиях, разворачивается в самом сердце Албании. Перед зрителем предстает мир, ... 7.2 10 10
Info! Золотая раздача, скачанное не засчитывается.
Торрент: Зарегистрирован [2019-04-12 04:25] · скачан: 443 раз
Статус: T временная
Размер: 1.75 GB
Как cкачать? Как скачать Лазарат через торрент | qTorrent

% Раздел Тема Автор DL S | L
T Фильмы (WEB-DL 720p, 1080p) [ 3.67 GB ] Лазарат / Lazarat [2019 WEB-DL 1080p] MVO [HDRezka Studio] - ExKinoRay Enigma2010 Скачать
2 | 0

28-11-2019 20:33  

Отключить всю рекламу на сайте

    Дорогой пользователь! Огромная просьба, поблагодарите релизера, оцените раздачу и оставьте свои комментарий, если Вы скачали Лазарат через торрент бесплатно! Внесите свою лепту в развитие PiratBit!
    Комментировать посты могут только пользователи прошедшие не сложную регистрацию
    Показать сообщения:    

    Лазарат через торрент
    Скачать бесплатно Лазарат
    Лазарат скачать торрент
    Лазарат смотреть онлайн
    Cкачать фильм Лазарат бесплатно
    Лазарат скачать торрент в хорошем качестве
    Лазарат смотреть онлайн бесплатно в хорошем качестве


    Вы не можете начинать темы
    Вы не можете отвечать на сообщения
    Вы не можете редактировать свои сообщения
    Вы не можете удалять свои сообщения
    Вы не можете голосовать в опросах
    Вы не можете прикреплять файлы к сообщениям
    Вы можете скачивать файлы