Ссылка на приватное зеркало нашего сайта всего за 1$. Внимание количество ограничено!!!

2 сезон

iTunes

1 сезон

1

2 сезон

2 сезон

iTunes

1 сезон

RePack

30

Ultimate

ВАЖНО

ИГРА 18+

pack

RePack

MK11
pack

Забери бонус

RePack

jed

!!Акция!!

Alien_Rage

RePack

fifa19

RePack

Assassins Creed: Odyssey

RePack

NEED FOR SPEED™ PAYBACK

4 сезон

9 сезон

Бесстыжие 9 сезон

Все сериалы

все сериалы на PB.wtf

RePack

FAR CRY 5
  

Крутые ребята / The Cool Kids / Сезон: 1 / Серии: 1-22 из 22 (Дон Скардино, Робби Кантримэн, Энтони Джозеф Рич) [2018, Комедия, WEB-DL 720p] MVO [TVShows] pb.wtf

Крутые ребята через торрент pb.wtf

Размер: 18.1 GB | Добавлен: 1 год 6 мес. назад | Торрент скачан:0 раз
Скачать  

12-04-2019 04:50 Крутые ребята Скачать торрент  

Крутые ребята / The Cool Kids

Год выпуска: 2018
Страна: США
Жанр: Комедия
Продолжительность: ~ 00:22:00
Перевод: Профессиональный (многоголосый закадровый) | TVShows
Субтитры: английские

Режиссёр: Дон Скардино, Робби Кантримэн, Энтони Джозеф Рич

В ролях:

Джейми Фарр, Рита Грэй, Дэвид Алан Грир, Лесли Джордан, Вики Лоуренс, Мартин Мулл, Альби Кастро

Описание:

Давние друзья Хэнк, Чарли, Сид и Маргарет — пенсионеры, они готовы нарушать все правила ради веселья, ведь сейчас им терять уже нечего. В центре истории — трое товарищей из дома престарелых, чей незыблемый авторитет пошатнулся с появлением новенькой бабули-бунтарки, преисполненной решимости свергнуть зарвавшихся дедков. Этакая средняя школа для тех, кому слегка за 70. Или «В Филадельфии всегда солнечно» 30 лет спустя.

rating


Качество: WEB-DL 720p
Формат: MKV

Видео: 1280x720 (16:9), 23.976 fps, MPEG-4 AVC ~3 750 kbps avg
Аудио#1: 48.0 kHz, AC3 Dolby Digital, 3/2 (L,C,R,l,r) + LFE ch, ~384 kbps | RUS / MVO
Аудио#2: 48.0 kHz, Enhanced Audio Coding 3, 3/2 (L,C,R,l,r) + LFE ch, ~640 kbps | ENG
скриншот  скриншот  скриншот  

Общее
Уникальный идентификатор : 322845416022844855013947239178562191002 (0xF2E1C3F21571DCE82932BF7267FC3E9A)
Полное имя : D:\The.Cool.Kids.S01.720p.TVShows\The.Cool.Kids.S01E01.720p.TVShows.mkv
Формат : Matroska
Версия формата : Version 4 / Version 2
Размер файла : 739 Мбайт
Продолжительность : 21 м. 40 с.
Общий поток : 4766 Кбит/сек
Дата кодирования : UTC 2018-12-20 08:38:27
Программа кодирования : mkvmerge v29.0.0 ('Like It Or Not') 64-bit
Библиотека кодирования : libebml v1.3.6 + libmatroska v1.4.9

Видео
Идентификатор : 1
Формат : AVC
Формат/Информация : Advanced Video Codec
Профиль формата : High@L4.1
Параметр CABAC формата : Да
Параметр RefFrames формата : 9 кадров
Идентификатор кодека : V_MPEG4/ISO/AVC
Продолжительность : 21 м. 37 с.
Битрейт : 3750 Кбит/сек
Ширина : 1280 пикселей
Высота : 720 пикселей
Соотношение сторон : 16:9
Режим частоты кадров : Постоянный
Частота кадров : 23,976 (24000/1001) кадра/сек
Цветовое пространство : YUV
Субдискретизация насыщенности : 4:2:0
Битовая глубина : 8 бит
Тип развёртки : Прогрессивная
Бит/(Пиксели*Кадры) : 0.170
Размер потока : 580 Мбайт (78%)
Язык : English
Default : Да
Forced : Нет

Аудио #1
Идентификатор : 2
Формат : AC-3
Формат/Информация : Audio Coding 3
Расширение режима : CM (complete main)
Параметр Endianness формата : Big
Идентификатор кодека : A_AC3
Продолжительность : 21 м. 38 с.
Вид битрейта : Постоянный
Битрейт : 384 Кбит/сек
Каналы : 6 каналов
Расположение каналов : Front: L C R, Side: L R, LFE
Частота : 48,0 КГц
Частота кадров : 31,250 кадров/сек (1536 spf)
Метод сжатия : С потерями
Размер потока : 59,5 Мбайт (8%)
Заголовок : TVShows
Язык : Russian
Default : Да
Forced : Да

Аудио #2
Идентификатор : 3
Формат : E-AC-3
Формат/Информация : Audio Coding 3
Параметр Endianness формата : Big
Идентификатор кодека : A_EAC3
Продолжительность : 21 м. 38 с.
Вид битрейта : Постоянный
Битрейт : 640 Кбит/сек
Каналы : 6 каналов
Расположение каналов : Front: L C R, Side: L R, LFE
Частота : 48,0 КГц
Частота кадров : 187,500 кадров/сек (256 spf)
Метод сжатия : С потерями
Задержка видео : 22 мс.
Размер потока : 99,1 Мбайт (13%)
Заголовок : Original
Язык : English
Default : Нет
Forced : Нет

Текст
Идентификатор : 4
Формат : UTF-8
Идентификатор кодека : S_TEXT/UTF8
Идентификатор кодека/Информация : UTF-8 Plain Text
Продолжительность : 21 м. 40 с.
Битрейт : 99 бит/сек
ElementCount : 493
Размер потока : 15,8 Кбайт (0%)
Заголовок : English
Язык : English
Default : Нет
Forced : Нет

Когда раздача ведётся путём добавления новых серий, при каждом добавлении создётся новый торрент. Чтобы начать докачку новой серии, пользователям необходимо сделать следующее:
(1) остановить скачивание,
(2) удалить старый торрент у себя из клиента (старые серии удалять не надо),
(3) скачать новый торрент и запустить его у себя в клиенте вместо старого, при этом указать клиенту путь в старую папку, куда и должно происходить скачивание новых серий.
Ваш клиент при этом должен произвести хеширование (проверку) старой папки (если не производит сам - помогите ему сделать это), и будет докачивать только те серии, которых у вас ещё нет. Старые серии при этом не удаляются, а продолжают раздаваться!
Eсли вы уже удалили старые серии, то предотвратить повторную закачку старых серий можно, отжав галочку в соответсвующих местах при запуске нового торрента. По возможности, желательно не удалять старые серии как можно дольше, чтобы релизёр не столько продолжал раздавать старые серии, а смог сконцентрироваться на новых.
pb.wtf



Скачать Крутые ребята через торрент http://b.radikal.ru/b37/1903/58/3c9bcde6ef8e.jpg Скачать фильм Крутые ребята через торрент бесплантно в хорошем качестве Описание: Давние друзья Хэнк, Чарли, Сид и Маргарет — пенсионеры, они готовы нарушать все правила ради веселья, ведь сейчас им терять уже ... 10 10 2
Info! Серебряная раздача, засчитывается только 50% скачанного.
Торрент: Зарегистрирован [2019-05-27 13:04] · скачан: 0 раз
Статус: √ проверено
Размер: 18.1 GB
Как cкачать? Как скачать Крутые ребята через торрент | qTorrent

% Раздел Тема Автор DL S | L
Зарубежные сериалы [ 35.98 GB ] Крутые ребята / The Cool Kids / Сезон: 1 / Серии: 1-22 из 22 [2018 WEB-DL 1080p] MVO [TVShows] bober100 Скачать
1 | 0
Зарубежные сериалы [ 15.75 GB ] Крутые ребята / The Cool Kids / Сезон: 1 / Серии: 1-22 из 22 [2018 WEB-DL 720p] MVO [Jaskier] bober100 Скачать
1 | 0
Зарубежные сериалы [ 5.7 GB ] Крутые ребята / The Cool Kids / Сезон: 1 / Серии: 1-22 из 22 [2018 WEB-DLRip] MVO [Jaskier] bober100 Скачать
1 | 0

28-11-2019 20:33  

Отключить всю рекламу на сайте

    Дорогой пользователь! Огромная просьба, поблагодарите релизера, оцените раздачу и оставьте свои комментарий, если Вы скачали Крутые ребята через торрент бесплатно! Внесите свою лепту в развитие PiratBit!
    Комментировать посты могут только пользователи прошедшие не сложную регистрацию
    Показать сообщения:    

    Крутые ребята через торрент
    Скачать бесплатно Крутые ребята
    Крутые ребята скачать торрент
    Крутые ребята смотреть онлайн
    Cкачать фильм Крутые ребята бесплатно
    Крутые ребята скачать торрент в хорошем качестве
    Крутые ребята смотреть онлайн бесплатно в хорошем качестве


    Вы не можете начинать темы
    Вы не можете отвечать на сообщения
    Вы не можете редактировать свои сообщения
    Вы не можете удалять свои сообщения
    Вы не можете голосовать в опросах
    Вы не можете прикреплять файлы к сообщениям
    Вы можете скачивать файлы