новый адрес
Ссылка на приватное зеркало всего за 1$. Внимание количество ограничено!!!

iTunes

1+1

iTunes

мы

WEB-DL

1

iTunes

Чернобыль

iTunes

Ральф против интернета

Лицензия

ПШазам

Лицензия

Оно 2

Лицензия

30
pack

Вам бонус

ВАЖНО

!!Акция!!

Alien_RageХит недели

RePack

Resident Evil 21

ИГРА 18+

pack

RePack

jed

!!Акция!!

Alien_Rage

RePack

fifa19

RePack

Assassins Creed: Odyssey

RePack

NEED FOR SPEED™ PAYBACK

3 сезон

9 сезон

Бесстыжие 9 сезон

Все сериалы

все сериалы на PB.wtf

RePack

FAR CRY 5
Ребята, катастрофически не хватает 1900р. для оплаты серверов за Октябрь (всвязи с блокировками трафик упал в 3 раза), 1-2р., выручайте.
  

Как не стать президентом / The Front Runner (Джейсон Рейтмен) [2018, Драма, биография, история, BDRip-AVC] MVO [Лицензия] pb.wtf

Как не стать президентом через торрент pb.wtf

Размер: 2.45 GB | Добавлен: 7 мес. назад | Торрент скачан:28 раз
Скачать  

12-04-2019 05:07 Как не стать президентом Скачать торрент  

Как не стать президентом / The Front Runner Год выпуска: 2018
Страна: США
Жанр: Драма, биография, история
Продолжительность: 01:53:31
Перевод: Профессиональный многоголосый | Лицензия
Субтитры: Русские (форc., полные), Английские (полные, SDH)

Режиссер: Джейсон Рейтмен

rating

В ролях:

Хью Джекман, Вера Фармига, Джонатан Кимбл Симмонс, Марк О’Брайэн, Молли Эфраим, Крис Кой, Алекс Карповски, Джош Бренер, Томми Дьюи, Кейтлин Дивер

Описание:

На президентских выборах в США в 1988 году у сенатора Гэри Харта были все шансы занять кресло в Белом доме, однако один его проступок — супружеская измена — пустил его политическую карьеру под откос и заставил покинуть президентскую гонку. Немаловажную роль в этой истории взлета и падения, повлиявшей не только на американскую, но и на мировую политику, сыграли журналисты.

Качество: BDRip-AVC
Формат: MKV

Видео: 1024x554 (1.85:1), 23,976 fps, x264 ~2 189 kbps avg, 0.161 bit/pixel
Аудио#1: 48 kHz, AC3 Dolby Digital Plus, 3/2 (L,C,R,l,r) + LFE ch, ~448.00 kbps avg | RUS (Лицензия)
Аудио#2: 48 kHz, AC3 Dolby Digital Plus, 3/2 (L,C,R,l,r) + LFE ch, ~448.00 kbps avg | ENG
скриншот  скриншот  скриншот  скриншот  скриншот  

Общее
Уникальный идентификатор : 162138511592622349441476303417810109717 (0x79FABDD06B1588A516C3E5FAA1444515)
Полное имя : F:OlLanDGroupThe.Front.Runner.2018.BDRip(AVC).OlLanDGroup.mkv
Формат : Matroska
Версия формата : Version 4 / Version 2
Размер файла : 2,45 Гбайт
Продолжительность : 1 ч. 53 м.
Общий поток : 3088 Кбит/сек
Название фильма : The.Front.Runner.2018 #TorpedoUK#
Дата кодирования : UTC 2019-04-12 04:36:55
Программа кодирования : mkvmerge v29.0.0 ('Like It Or Not') 64-bit
Библиотека кодирования : libebml v1.3.6 + libmatroska v1.4.9

Видео
Идентификатор : 1
Формат : AVC
Формат/Информация : Advanced Video Codec
Профиль формата : High@L4.1
Параметр CABAC формата : Да
Параметр ReFrames формата : 10 кадров
Идентификатор кодека : V_MPEG4/ISO/AVC
Продолжительность : 1 ч. 53 м.
Битрейт : 2189 Кбит/сек
Ширина : 1024 пикселя
Высота : 554 пикселя
Соотношение сторон : 1,85:1
Режим частоты кадров : Постоянный
Частота кадров : 23,976 (24000/1001) кадра/сек
Цветовое пространство : YUV
Субдискретизация насыщенности : 4:2:0
Битовая глубина : 8 бит
Тип развёртки : Прогрессивная
Бит/(Пиксели*Кадры) : 0.161
Размер потока : 1,74 Гбайт (71%)
Библиотека кодирования : x264 core 146 r2538 121396c
Настройки программы : cabac=1 / ref=10 / deblock=1:-2:-3 / analyse=0x3:0x113 / me=umh / subme=11 / psy=1 / psy_rd=0.95:0.07 / mixed_ref=1 / me_range=48 / chroma_me=1 / trellis=2 / 8x8dct=1 / cqm=0 / deadzone=21,11 / fast_pskip=1 / chroma_qp_offset=-3 / threads=6 / lookahead_threads=1 / sliced_threads=0 / nr=0 / decimate=1 / interlaced=0 / bluray_compat=0 / constrained_intra=0 / bframes=11 / b_pyramid=2 / b_adapt=2 / b_bias=0 / direct=3 / weightb=1 / open_gop=0 / weightp=2 / keyint=240 / keyint_min=23 / scenecut=40 / intra_refresh=0 / rc_lookahead=40 / rc=2pass / mbtree=0 / bitrate=2189 / ratetol=1.0 / qcomp=0.60 / qpmin=0 / qpmax=69 / qpstep=4 / cplxblur=20.0 / qblur=0.5 / vbv_maxrate=50000 / vbv_bufsize=62500 / nal_hrd=none / filler=0 / ip_ratio=1.40 / pb_ratio=1.30 / aq=1:1.00
Язык : English
Default : Да
Forced : Нет

Аудио #1
Идентификатор : 2
Формат : AC-3
Формат/Информация : Audio Coding 3
Расширение режима : CM (complete main)
Параметр Endianness формата : Big
Идентификатор кодека : A_AC3
Продолжительность : 1 ч. 53 м.
Вид битрейта : Постоянный
Битрейт : 448 Кбит/сек
Каналы : 6 каналов
Расположение каналов : Front: L C R, Side: L R, LFE
Частота : 48,0 КГц
Частота кадров : 31,250 кадров/сек (1536 spf)
Битовая глубина : 16 бит
Метод сжатия : С потерями
Размер потока : 364 Мбайт (15%)
Заголовок : MVO [License]
Язык : Russian
Default : Да
Forced : Нет

Аудио #2
Идентификатор : 3
Формат : AC-3
Формат/Информация : Audio Coding 3
Расширение режима : CM (complete main)
Параметр Endianness формата : Big
Идентификатор кодека : A_AC3
Продолжительность : 1 ч. 53 м.
Вид битрейта : Постоянный
Битрейт : 448 Кбит/сек
Каналы : 6 каналов
Расположение каналов : Front: L C R, Side: L R, LFE
Частота : 48,0 КГц
Частота кадров : 31,250 кадров/сек (1536 spf)
Битовая глубина : 16 бит
Метод сжатия : С потерями
Размер потока : 364 Мбайт (15%)
Заголовок : [Original]
Язык : English
Default : Нет
Forced : Нет

Текст #1
Идентификатор : 4
Формат : UTF-8
Идентификатор кодека : S_TEXT/UTF8
Идентификатор кодека/Информация : UTF-8 Plain Text
Продолжительность : 1 ч. 44 м.
Битрейт : 1 бит/сек
Count of elements : 35
Размер потока : 1,36 Кбайт (0%)
Заголовок : Forced
Язык : Russian
Default : Да
Forced : Нет

Текст #2
Идентификатор : 5
Формат : UTF-8
Идентификатор кодека : S_TEXT/UTF8
Идентификатор кодека/Информация : UTF-8 Plain Text
Продолжительность : 1 ч. 44 м.
Битрейт : 157 бит/сек
Count of elements : 1940
Размер потока : 121 Кбайт (0%)
Заголовок : Full
Язык : Russian
Default : Нет
Forced : Нет

Текст #3
Идентификатор : 6
Формат : UTF-8
Идентификатор кодека : S_TEXT/UTF8
Идентификатор кодека/Информация : UTF-8 Plain Text
Продолжительность : 1 ч. 44 м.
Битрейт : 92 бит/сек
Count of elements : 1939
Размер потока : 70,5 Кбайт (0%)
Заголовок : Full
Язык : English
Default : Нет
Forced : Нет

Текст #4
Идентификатор : 7
Формат : UTF-8
Идентификатор кодека : S_TEXT/UTF8
Идентификатор кодека/Информация : UTF-8 Plain Text
Продолжительность : 1 ч. 47 м.
Битрейт : 102 бит/сек
Count of elements : 2212
Размер потока : 80,5 Кбайт (0%)
Заголовок : SDH
Язык : English
Default : Нет
Forced : Нет

Меню
00:00:00.000 : :Capítulo 01
00:08:02.607 : :Capítulo 02
00:14:56.813 : :Capítulo 03
00:19:32.505 : :Capítulo 04
00:27:22.933 : :Capítulo 05
00:34:31.945 : :Capítulo 06
00:40:30.428 : :Capítulo 07
00:45:55.962 : :Capítulo 08
00:51:07.314 : :Capítulo 09
00:58:52.112 : :Capítulo 10
01:09:05.933 : :Capítulo 11
01:15:57.762 : :Capítulo 12
01:22:31.655 : :Capítulo 13
01:29:28.738 : :Capítulo 14
01:34:40.508 : :Capítulo 15
01:41:31.919 : :Capítulo 16

pb.wtf



Скачать Как не стать президентом через торрент https://i110.fastpic.ru/big/2019/0219/69/7f9c01b09d0182002024a9dd885b6569.jpg Скачать фильм Как не стать президентом через торрент бесплантно в хорошем качестве Описание: На президентских выборах в США в 1988 году у сенатора Гэри Харта были все шансы занять кресло в Белом доме, однако один его ... 9.8 10 4
Торрент: Зарегистрирован [2019-04-12 05:07] · скачан: 28 раз
Статус: √ проверено
Размер: 2.45 GB
Как cкачать? Как скачать Как не стать президентом через торрент | qTorrent

% Раздел Тема Автор DL S | L
Фильмы 2018 [DVDrip, WEB-DLRip, HDrip] (DUB, MVO) [ 2.18 GB ] Как не стать президентом / The Front Runner [2018 биография история BDRip] MVO [] Twi7ter Скачать
2 | 0
Фильмы [HD 720p, 1080p] (Хороший звук DUB, MVO) [ 7.29 GB ] Как не стать президентом / The Front Runner [2018 биография история BDRip 720p] MVO [] bober100 Скачать
1 | 0
Фильмы [HD 720p, 1080p] (Хороший звук DUB, MVO) [ 10.03 GB ] Как не стать президентом / The Front Runner [2018 биография история BDRip 1080p] MVO [] bober100 Скачать
1 | 0
Фильмы 2018 [DVDrip, WEB-DLRip, HDrip] (DUB, MVO) [ 2.18 GB ] Как не стать президентом / The Front Runner [2018 биография история BDRip] MVO [ BD EUR] bober100 Скачать
2 | 0
Фильмы 2018 [DVDrip, WEB-DLRip, HDrip] (DUB, MVO) [ 1.46 GB ] Как не стать президентом / The Front Runner [2018 биография история BDRip] MVO [ BD EUR] bober100 Скачать
1 | 0
Фильмы 2018 [DVDrip, WEB-DLRip, HDrip] (DUB, MVO) [ 1.46 GB ] Как не стать президентом / The Front Runner [2018 биография история BDRip] MVO [] Twi7ter Скачать
1 | 0
Фильмы 2018 [DVDrip, WEB-DLRip, HDrip] (DUB, MVO) [ 748 MB ] Как не стать президентом / The Front Runner [2018 биография история HDRip] MVO bober100 Скачать
1 | 2

28-11-2019 20:33  

Отключить всю рекламу на сайте

    Дорогой пользователь! Огромная просьба, поблагодарите релизера, оцените раздачу и оставьте свои комментарий, если Вы скачали Как не стать президентом через торрент бесплатно! Внесите свою лепту в развитие PiratBit!
    Комментировать посты могут только пользователи прошедшие не сложную регистрацию
    Показать сообщения:    

    Как не стать президентом через торрент
    Скачать бесплатно Как не стать президентом
    Как не стать президентом скачать торрент
    Как не стать президентом смотреть онлайн
    Cкачать фильм Как не стать президентом бесплатно
    Как не стать президентом скачать торрент в хорошем качестве
    Как не стать президентом смотреть онлайн бесплатно в хорошем качестве


    Вы не можете начинать темы
    Вы не можете отвечать на сообщения
    Вы не можете редактировать свои сообщения
    Вы не можете удалять свои сообщения
    Вы не можете голосовать в опросах
    Вы не можете прикреплять файлы к сообщениям
    Вы можете скачивать файлы