Marvel's Avengers Deluxe Edition (супер цена) 159р. Внимание количество ограничено!!!

2 сезон

iTunes

iTunes

1

iTunes

iTunes

iTunes

WEBRip

iTunes

30
pack

Новость дня

ВАЖНО

!!Акция!!

Alien_RageХит недели

RePack

Horizon Zero Dawn

ИГРА 18+

pack

RePack

jed

!!Акция!!

Alien_Rage

RePack

fifa19

RePack

Assassins Creed: Odyssey

RePack

NEED FOR SPEED™ PAYBACK

4 сезон

9 сезон

Бесстыжие 9 сезон

Все сериалы

все сериалы на PB.wtf

RePack

FAR CRY 5
  

Операция "Тень" / Operasjon Mørkemann (Грета Бёэ) [2018, Детектив, семейный, BDRip 720p] MVO ["Синема УС"] pb.wtf

Операция "Тень" через торрент pb.wtf

Размер: 4.15 GB | Добавлен: 1 год 5 мес. назад | Торрент скачан:7 раз
Скачать  

12-04-2019 05:41 Операция "Тень" Скачать торрент  

Операция "Тень" / Operasjon MørkemannГод выпуска: 2018
Страна: Норвеги
Жанр: Детектив, семейный
Продолжительность: 01:22:47
Перевод: Любительский (многоголосый) | "Синема УС"
Субтитры: отсутствуют

Режиссер: Грета Бёэ

rating

В ролях: Кайса Гурин Антонсен, Девин, Ульрикке Хансен Дёвиген, Йон Эйкемо, Томас Фарествейт, Лизе Фьелдстад, Томми Хайвинг, Эмма Килэйн, Аврора Линдсет-Лёкка, Эйстейн Рёгер

Описание: Детективы агентства №2 Тирил и Оливер пытаются с помощью деда разгадать загадку таинственного Человека-тени, который в тёмное время суток появляется на лесной поляне и зачем-то копает землю в разных местах.

Качество: BDRip 720p
Формат: AVI

Видео: h.264,6 733 Кбит/с, 1280x536
Аудио#1: Русский (AC3, 2 ch, 448 Кбит/с)
скриншот  скриншот  скриншот  

Общее
Уникальный идентификатор : 201033301424267569302792765129768875108 (0x973D9B02420319509827B96922C8B464)
Полное имя : D:\Operasjon.Moerkemann.2018.P.BDRip.72Op.mkv
Формат : Matroska
Версия формата : Version 2
Размер файла : 4,15 Гбайт
Продолжительность : 1 ч. 22 м.
Режим общего битрейта : Переменный
Общий поток : 7183 Кбит/сек
Дата кодирования : UTC 2019-04-11 18:04:20
Программа кодирования : mkvmerge v8.3.0 ('Over the Horizon') 64bit
Библиотека кодирования : libebml v1.3.1 + libmatroska v1.4.2

Видео
Идентификатор : 1
Формат : AVC
Формат/Информация : Advanced Video Codec
Профиль формата : High@L4.1
Параметр CABAC формата : Да
Параметр RefFrames формата : 4 кадра
Идентификатор кодека : V_MPEG4/ISO/AVC
Продолжительность : 1 ч. 22 м.
Вид битрейта : Переменный
Битрейт : 6733 Кбит/сек
Максимальный битрейт : 7500 Кбит/сек
Ширина : 1280 пикселей
Высота : 536 пикселей
Соотношение сторон : 2,40:1
Режим частоты кадров : Постоянный
Частота кадров : 23,976 (24000/1001) кадра/сек
Стандарт вещания : Component
Цветовое пространство : YUV
Субдискретизация насыщенности : 4:2:0
Битовая глубина : 8 бит
Тип развёртки : Прогрессивная
Бит/(Пиксели*Кадры) : 0.401
Размер потока : 3,81 Гбайт (92%)
Default : Да
Forced : Нет
Цветовой диапазон : Limited
Основные цвета : BT.709
Характеристики трансфера : BT.709
Коэффициенты матрицы : BT.709

Аудио
Идентификатор : 2
Формат : AC-3
Формат/Информация : Audio Coding 3
Расширение режима : CM (complete main)
Параметр Endianness формата : Big
Идентификатор кодека : A_AC3
Продолжительность : 1 ч. 22 м.
Вид битрейта : Постоянный
Битрейт : 448 Кбит/сек
Каналы : 2 канала
Расположение каналов : Front: L R
Частота : 48,0 КГц
Частота кадров : 31,250 кадров/сек (1536 spf)
Метод сжатия : С потерями
Размер потока : 265 Мбайт (6%)
Default : Да
Forced : Нет

pb.wtf



Скачать Операция "Тень" через торрент https://b.radikal.ru/b12/1904/80/90c84b2c6d38.jpg Скачать фильм Операция "Тень" через торрент бесплантно в хорошем качестве Описание: Детективы агентства №2 Тирил и Оливер пытаются с помощью деда разгадать загадку таинственного Человека-тени, который в тёмное ... 10 10 2
Торрент: Зарегистрирован [2019-04-12 05:41] · скачан: 7 раз
Статус: # сомнительно
Размер: 4.15 GB
Как cкачать? Как скачать Операция "Тень" через торрент | qTorrent

28-11-2019 20:33  

Отключить всю рекламу на сайте

    Дорогой пользователь! Огромная просьба, поблагодарите релизера, оцените раздачу и оставьте свои комментарий, если Вы скачали Операция "Тень" через торрент бесплатно! Внесите свою лепту в развитие PiratBit!
    Комментировать посты могут только пользователи прошедшие не сложную регистрацию
    Показать сообщения:    

    Операция "Тень" через торрент
    Скачать бесплатно Операция "Тень"
    Операция "Тень" скачать торрент
    Операция "Тень" смотреть онлайн
    Cкачать фильм Операция "Тень" бесплатно
    Операция "Тень" скачать торрент в хорошем качестве
    Операция "Тень" смотреть онлайн бесплатно в хорошем качестве


    Вы не можете начинать темы
    Вы не можете отвечать на сообщения
    Вы не можете редактировать свои сообщения
    Вы не можете удалять свои сообщения
    Вы не можете голосовать в опросах
    Вы не можете прикреплять файлы к сообщениям
    Вы можете скачивать файлы