Всегда рабочее зеркало без VPN и Proxy просто перед .vidak.icu напиши любое слово или цифру, Пример http://vwjh.vidak.icu

MVO

MVO

1 сезон

1

1 сезон

iTunes

1 сезон

13

1 сезон

Deluxe

pack

Рекомендуем

Repack

30

ВАЖНО

RePack

MK11

RePack

jed

RePack

fifa19

RePack

RDR2

RePack

NEED FOR SPEED™ PAYBACK

Кинопоиск HD

6 сезон

 Острые козырьки 6 сезон

Все сериалы

все сериалы на PB.wtf

RePack

FAR CRY 5
  
Magnet ссылка

Вокруг света с Тимоном и Пумбой / Around the World with Timon & Pumbaa (Тони Грег) [1995 г., комедия, приключения,мультфильм, DVDRip] pb.wtf

Вокруг света с Тимоном и Пумбой через торрент pb.wtf

Размер: 455 MB | Добавлен: 11 лет назад | Торрент скачан:77 раз
Смотреть онлайн Вокруг света с Тимоном и Пумбой | Скачать    Ребята, помогите собрать деньги на оплату серверов!!!

09-01-2011 10:21 Вокруг света с Тимоном и Пумбой Скачать торрент  



Вокруг света с Тимоном и Пумбой / Around the World with Timon & Pumbaa

Год выпуска: 1995
Страна
: США/ Walt Disney Pictures
Жанр: комедия, приключения,мультфильм
Продолжительность: 01:10:09
Перевод: Профессиональный (полное дублирование)

Режиссер: Тони Грег

В ролях: Тимон и Пумбa

ОписаниеВеселые истории о приключениях двух самых забавных Диснеевских героев.
Знаменитые герои классического мультфильма Король-лев самые забавные и остроумные Тимон и Пумба в первой кассете с историями невероятных приключений двух закадычных друзей. После того, как в неповоротливого Пумбу попала молния, веселый кабанчик забыл свое имя и все, что с ним произошло! Заботливый Тимон решил освежить подгоревшую память друга и начинает свой увлекательный рассказ о былых подвигах. Вас ждет невероятный завтрак в дремучих бразильских джунглях, а также маленький забавный крокодильчик, решивший, что Пумба - его мама.

Качество: DVDRip
Формат: AVI
Видео кодек: DivX
Аудио кодек: MP3
Видео: DivX 5.x,640x480,1254Kbps кб/с
Аудио: MP3 Битрейт: 128Kbps кб/с
E:\фильмы\тимон и пумба\Vokrug.sveta.s.Timonom.i.Pumboi.1995.XviD.DVDRip.ExKinoRay_xvid.avi
General
Complete name : E:\фильмы\тимон и пумба\Vokrug.sveta.s.Timonom.i.Pumboi.1995.XviD.DVDRip.ExKinoRay_xvid.avi
Format : AVI
Format/Info : Audio Video Interleave
File size : 455 MiB
Duration : 1h 10mn
Overall bit rate : 906 Kbps
Writing application : MEncoder Sherpya-SVN-r32492-4.2.5
Writing library : MPlayer
Video #0
ID : 0
Format : MPEG-4 Visual
Format profile : [email protected]
Format settings, BVOP : No
Format settings, QPel : No
Format settings, GMC : No warppoints
Format settings, Matrix : Default (H.263)
Codec ID : XVID
Codec ID/Hint : XviD
Duration : 1h 10mn
Bit rate : 768 Kbps
Width : 640 pixels
Height : 480 pixels
Display aspect ratio : 4:3
Frame rate : 25.000 fps
Resolution : 24 bits
Colorimetry : 4:2:0
Scan type : Progressive
Bits/(Pixel*Frame) : 0.100
Stream size : 385 MiB (85%)
Writing library : XviD 1.2.1 (UTC 2008-12-04)
Audio #1
ID : 1
Format : MPEG Audio
Format version : Version 1
Format profile : Layer 3
Codec ID : 55
Codec ID/Hint : MP3
Duration : 1h 10mn
Bit rate mode : Constant
Bit rate : 32.0 Kbps
Channel(s) : 2 channels
Sampling rate : 44.1 KHz
Resolution : 16 bits
Stream size : 63.1 MiB (14%)
Alignment : Aligned on interleaves
Interleave, duration : 26 ms (0.65 video frame)
Interleave, preload duration : 132 ms
Writing library : LAME3.98.4
pb.wtf



Скачать Вокруг света с Тимоном и Пумбой через торрент http://piratbit.in.ua/778385f288e87905d13ba60046a08a59.jpg Скачать, смотреть онлайн Вокруг света с Тимоном и Пумбой бесплантно в хорошем качестве ОписаниеВеселые истории о приключениях двух самых забавных Диснеевских героев.Знаменитые герои классического мультфильма Король-лев самые ... 5 10 9
Info! Золотая раздача, скачанное не засчитывается.
Торрент: Зарегистрирован [2011-01-09 10:21] · скачан: 77 раз
Статус: √ проверено
Размер: 455 MB
Как cкачать? Как скачать Вокруг света с Тимоном и Пумбой через торрент | UTorrent

28-11-2019 20:33  

Отключить вcю реклaмy на сайте

    Дорогой пользователь! Огромная просьба, поблагодарите релизера, оцените раздачу и оставьте свои комментарий, если Вы скачали Вокруг света с Тимоном и Пумбой через торрент бесплатно!
    Комментировать посты могут только пользователи прошедшие не сложную регистрацию
    Показать сообщения:    

    Вокруг света с Тимоном и Пумбой через торрент
    Скачать бесплатно Вокруг света с Тимоном и Пумбой
    Вокруг света с Тимоном и Пумбой скачать торрент
    Вокруг света с Тимоном и Пумбой смотреть онлайн
    Cкачать фильм Вокруг света с Тимоном и Пумбой бесплатно
    Вокруг света с Тимоном и Пумбой скачать торрент в хорошем качестве
    Вокруг света с Тимоном и Пумбой смотреть онлайн бесплатно в хорошем качестве


    Вы не можете начинать темы
    Вы не можете отвечать на сообщения
    Вы не можете редактировать свои сообщения
    Вы не можете удалять свои сообщения
    Вы не можете голосовать в опросах
    Вы не можете прикреплять файлы к сообщениям
    Вы можете скачивать файлы