Ссылка на приватное зеркало нашего сайта всего за 1$. Внимание количество ограничено!!!

2 сезон

iTunes

1 сезон

1

2 сезон

2 сезон

iTunes

1 сезон

RePack

30

Ultimate

ВАЖНО

ИГРА 18+

pack

RePack

MK11
pack

Забери бонус

RePack

jed

!!Акция!!

Alien_Rage

RePack

fifa19

RePack

Assassins Creed: Odyssey

RePack

NEED FOR SPEED™ PAYBACK

4 сезон

9 сезон

Бесстыжие 9 сезон

Все сериалы

все сериалы на PB.wtf

RePack

FAR CRY 5
  

Маниту / The Manitou (Уильям Гёрдлер) [1978, ужасы, фантастика, BD Remux 1080р] 2xAVO pb.wtf

Маниту через торрент pb.wtf

Размер: 27.38 GB | Добавлен: 1 год 7 мес. назад | Торрент скачан:0 раз
Скачать  

12-04-2019 09:04 Маниту Скачать торрент  

Маниту / The Manitou
Год выпуска: 1978
Страна: Канада, США
Жанр: ужасы, фантастика
Продолжительность: 01:43:25
Перевод:

Перевод 1: авторский (одноголосый закадровый) | Григорий Либергал
Перевод 2: авторский (одноголосый закадровый) | Юрий Товбин

Субтитры: английские (SDH)

Режиссер: Уильям Гёрдлер

rating

В ролях:

Тони Кертис, Майкл Ансара, Сьюзен Страсберг, Стелла Стивенс, Джон Седар, Энн Сотерн, Бёрджесс Мередит, Пол Манти, Жанетт Нолан, Лёрин Таттл и др.

Описание:

Женщина обращается к врачам с просьбой о помощи: на ее спине стремительно растет странное опухолевидное образование, которое оказывается… человеческим зародышем. По ходу дела выясняется, что телом нашей героини решил воспользоваться для своего очередного возрождения некий древний и могущественный индейский шаман.

Качество: BD Remux 1080р
Формат: MKV

Видео: MPEG-4 AVC Video / 35973 kbps / 1080p / 23.976 fps / 16:9 / High Profile 4.1
Аудио#1: Russian / AC-3 / 2.0 / 48 kHz / 192 kbps / 16-bit / Григорий Либергал
Аудио#2: Russian / AC-3 / 2.0 / 48 kHz / 192 kbps / 16-bit / Юрий Товбин
Аудио#3: English / DTS-HD Master Audio / 2.0 / 48 kHz / 1570 kbps / 24-bit (DTS Core: 2.0 / 48 kHz / 1509 kbps / 24-bit)
Аудио#4: English / AC-3 / 2.0 / 48 kHz / 192 kbps / 16-bit / Audio Commentary With Film Historian Troy Howarth
скриншот  скриншот  скриншот  скриншот  

General
Unique ID : 195546680893792619795022099269253009360 (0x931CEBBB3ED6D0006F7CAEE2960B0FD0)
Complete name : The.Manitou.1978.BDRemux.1080p.mkv
Format : Matroska
Format version : Version 4 / Version 2
File size : 27.4 GiB
Duration : 1 h 43 min
Overall bit rate mode : Variable
Overall bit rate : 37.9 Mb/s
Encoded date : UTC 2019-04-11 22:17:32
Writing application : mkvmerge v31.0.0 ('Dolores In A Shoestand') 32-bit
Writing library : libebml v1.3.6 + libmatroska v1.4.9

Video
ID : 1
Format : AVC
Format/Info : Advanced Video Codec
Format profile : High@L4.1
Format settings, CABAC : Yes
Format settings, RefFrames : 4 frames
Codec ID : V_MPEG4/ISO/AVC
Duration : 1 h 43 min
Bit rate mode : Variable
Bit rate : 35.7 Mb/s
Maximum bit rate : 38.0 Mb/s
Width : 1 920 pixels
Height : 1 080 pixels
Display aspect ratio : 16:9
Frame rate mode : Constant
Frame rate : 23.976 (24000/1001) FPS
Color space : YUV
Chroma subsampling : 4:2:0
Bit depth : 8 bits
Scan type : Progressive
Bits/(Pixel*Frame) : 0.719
Stream size : 25.8 GiB (94%)
Default : Yes
Forced : No

Audio #1
ID : 2
Format : AC-3
Format/Info : Audio Coding 3
Format settings, Endianness : Big
Codec ID : A_AC3
Duration : 1 h 43 min
Bit rate mode : Constant
Bit rate : 192 kb/s
Channel(s) : 2 channels
Channel positions : Front: L R
Sampling rate : 48.0 kHz
Frame rate : 31.250 FPS (1536 SPF)
Bit depth : 16 bits
Compression mode : Lossy
Stream size : 142 MiB (1%)
Title : Григорий Либергал
Language : Russian
Service kind : Complete Main
Default : Yes
Forced : No

Audio #2
ID : 3
Format : AC-3
Format/Info : Audio Coding 3
Format settings, Endianness : Big
Codec ID : A_AC3
Duration : 1 h 43 min
Bit rate mode : Constant
Bit rate : 192 kb/s
Channel(s) : 2 channels
Channel positions : Front: L R
Sampling rate : 48.0 kHz
Frame rate : 31.250 FPS (1536 SPF)
Bit depth : 16 bits
Compression mode : Lossy
Stream size : 142 MiB (1%)
Title : Юрий Товбин
Language : Russian
Service kind : Complete Main
Default : No
Forced : No

Audio #3
ID : 4
Format : DTS
Format/Info : Digital Theater Systems
Format profile : MA / Core
Mode : 16
Format settings, Endianness : Big
Codec ID : A_DTS
Duration : 1 h 43 min
Bit rate mode : Variable / Constant
Bit rate : 1 570 kb/s / 1 509 kb/s
Channel(s) : 2 channels
Channel positions : Front: L R
Sampling rate : 48.0 kHz
Frame rate : 93.750 FPS (512 SPF)
Bit depth : 24 bits
Compression mode : Lossless / Lossy
Stream size : 1.13 GiB (4%)
Language : English
Default : No
Forced : No

Audio #4
ID : 5
Format : AC-3
Format/Info : Audio Coding 3
Format settings, Endianness : Big
Codec ID : A_AC3
Duration : 1 h 43 min
Bit rate mode : Constant
Bit rate : 192 kb/s
Channel(s) : 2 channels
Channel positions : Front: L R
Sampling rate : 48.0 kHz
Frame rate : 31.250 FPS (1536 SPF)
Bit depth : 16 bits
Compression mode : Lossy
Stream size : 142 MiB (1%)
Title : Audio Commentary With Film Historian Troy Howarth
Language : English
Service kind : Complete Main
Default : No
Forced : No

Text
ID : 6
Format : UTF-8
Codec ID : S_TEXT/UTF8
Codec ID/Info : UTF-8 Plain Text
Duration : 1 h 40 min
Bit rate : 57 b/s
Count of elements : 1777
Stream size : 42.3 KiB (0%)
Title : SDH
Language : English
Default : No
Forced : No

Menu
00:00:00.000 : :Chapter 01
00:07:12.849 : :Chapter 02
00:19:45.976 : :Chapter 03
00:27:31.316 : :Chapter 04
00:33:37.181 : :Chapter 05
00:41:59.808 : :Chapter 06
00:52:24.307 : :Chapter 07
01:02:21.487 : :Chapter 08
01:08:15.382 : :Chapter 09
01:15:26.271 : :Chapter 10
01:21:56.161 : :Chapter 11
01:30:11.197 : :Chapter 12
01:43:23.864 : :Chapter 13

pb.wtf



Скачать Маниту через торрент https://i1.imageban.ru/out/2019/04/12/ff65c07f7721608229a91a1459482235.jpg Скачать фильм Маниту через торрент бесплантно в хорошем качестве Описание: Женщина обращается к врачам с просьбой о помощи: на ее спине стремительно растет странное опухолевидное образование, которое ... 10 10 2
Info! Золотая раздача, скачанное не засчитывается.
Торрент: Зарегистрирован [2019-04-12 09:04] · скачан: 0 раз
Статус: √ проверено
Размер: 27.38 GB
Как cкачать? Как скачать Маниту через торрент | qTorrent

28-11-2019 20:33  

Отключить всю рекламу на сайте

    Дорогой пользователь! Огромная просьба, поблагодарите релизера, оцените раздачу и оставьте свои комментарий, если Вы скачали Маниту через торрент бесплатно! Внесите свою лепту в развитие PiratBit!
    Комментировать посты могут только пользователи прошедшие не сложную регистрацию
    Показать сообщения:    

    Маниту через торрент
    Скачать бесплатно Маниту
    Маниту скачать торрент
    Маниту смотреть онлайн
    Cкачать фильм Маниту бесплатно
    Маниту скачать торрент в хорошем качестве
    Маниту смотреть онлайн бесплатно в хорошем качестве


    Вы не можете начинать темы
    Вы не можете отвечать на сообщения
    Вы не можете редактировать свои сообщения
    Вы не можете удалять свои сообщения
    Вы не можете голосовать в опросах
    Вы не можете прикреплять файлы к сообщениям
    Вы можете скачивать файлы