Ссылка на приватное зеркало нашего сайта всего за 1$. Внимание количество ограничено!!!

2 сезон

iTunes

1 сезон

1

2 сезон

2 сезон

iTunes

1 сезон

RePack

30

Новинка

ВАЖНО

ИГРА 18+

pack

RePack

MK11
pack

Забери бонус

RePack

jed

!!Акция!!

Alien_Rage

RePack

fifa19

RePack

Assassins Creed: Odyssey

RePack

NEED FOR SPEED™ PAYBACK

4 сезон

9 сезон

Бесстыжие 9 сезон

Все сериалы

все сериалы на PB.wtf

RePack

FAR CRY 5
  

30 миль из ниоткуда / 30 Miles from Nowhere (Кэйтлин Коллер) [2018, триллер, WEB-DL 1080p] MVO [HDRezka Studio] pb.wtf

30 миль из ниоткуда через торрент pb.wtf

Размер: 3.76 GB | Добавлен: 1 год 7 мес. назад | Торрент скачан:112 раз
Скачать  

12-04-2019 10:23 30 миль из ниоткуда Скачать торрент  

30 миль из ниоткуда / 30 Miles from Nowhere Год выпуска: 2018
Страна: США
Жанр: триллер
Продолжительность: 01:24:58
Перевод: Профессиональный (многоголосый) | HDRezka Studio
Субтитры: английские

Режиссер: Кэйтлин Коллер

rating

В ролях:

Роберт Патрик Бенедикт, Кэрри Престон, Расти Швиммер, Мариэль Эйснер, Биргунди Бейкер, Эндрю Ротенберг, Кэти Шим, Уильям Смайли, Шона Кофоед, Роберт Брюлер

Описание:

В центре сюжета находятся пятеро старых друзей, знакомых еще со времен учебы в колледже. Они не общались друг с другом уже несколько лет, но загадочное самоубийство шестого приятеля заставляет их воссоединиться спустя годы. Друзья приезжают в Висконсин и заселяются в отдаленный летний домик, где они любили отдыхать в молодости, чтобы почтить память умершего товарища и вспомнить былые времена. Сначала все идет именно так, как они и задумывали, однако вскоре ностальгическая встреча оборачивается настоящим кошмаром.

Качество: WEB-DL 1080p
Формат: MKV

Видео: MPEG-4 AVC, 5562 Кбит/с, 1920x816
Аудио#1: Русский: AC3, 2 ch, 192 Кбит/с - HDRezka Studio
Аудио#2: Английский: Е-AC3, 6 ch, 640 Кбит/с - Original
скриншот  скриншот  скриншот  скриншот  скриншот  

General
Unique ID : 17287674786008826830283569248373379213 (0xD017C2C7E645021247FA1137CFD108D)
Complete name : G:30.Miles.From.Nowhere.2018.WEB-DL.1080p.mkv
Format : Matroska
Format version : Version 4 / Version 2
File size : 3.76 GiB
Duration : 1 h 24 min
Overall bit rate : 6 396 kb/s
Encoded date : UTC 2019-04-12 09:13:42
Writing application : mkvmerge v20.0.0 ('I Am The Sun') 64-bit
Writing library : libebml v1.3.5 + libmatroska v1.4.8

Video
ID : 1
Format : AVC
Format/Info : Advanced Video Codec
Format profile : High@L4
Format settings : CABAC / 4 Ref Frames
Format settings, CABAC : Yes
Format settings, RefFrames : 4 frames
Codec ID : V_MPEG4/ISO/AVC
Duration : 1 h 24 min
Bit rate mode : Constant
Bit rate : 5 562 kb/s
Nominal bit rate : 10 000 kb/s
Width : 1 920 pixels
Height : 816 pixels
Display aspect ratio : 2.35:1
Frame rate mode : Constant
Frame rate : 23.976 (24000/1001) FPS
Color space : YUV
Chroma subsampling : 4:2:0
Bit depth : 8 bits
Scan type : Progressive
Bits/(Pixel*Frame) : 0.148
Stream size : 3.27 GiB (87%)
Language : English
Default : Yes
Forced : No
Color range : Limited
Color primaries : BT.709
Transfer characteristics : BT.709
Matrix coefficients : BT.709

Audio #1
ID : 2
Format : AC-3
Format/Info : Audio Coding 3
Codec ID : A_AC3
Duration : 1 h 24 min
Bit rate mode : Constant
Bit rate : 192 kb/s
Channel(s) : 2 channels
Channel positions : Front: L R
Sampling rate : 48.0 kHz
Frame rate : 31.250 FPS (1536 SPF)
Bit depth : 16 bits
Compression mode : Lossy
Stream size : 116 MiB (3%)
Title : MVO HDRezka
Language : Russian
Service kind : Complete Main
Default : Yes
Forced : No

Audio #2
ID : 3
Format : E-AC-3
Format/Info : Enhanced Audio Coding 3
Codec ID : A_EAC3
Duration : 1 h 24 min
Bit rate mode : Constant
Bit rate : 640 kb/s
Channel(s) : 6 channels
Channel positions : Front: L C R, Side: L R, LFE
Sampling rate : 48.0 kHz
Frame rate : 187.500 FPS (256 SPF)
Compression mode : Lossy
Stream size : 386 MiB (10%)
Language : English
Service kind : Complete Main
Default : No
Forced : No

Text
ID : 4
Format : UTF-8
Codec ID : S_TEXT/UTF8
Codec ID/Info : UTF-8 Plain Text
Duration : 1 h 21 min
Bit rate : 76 b/s
Count of elements : 1705
Stream size : 45.9 KiB (0%)
Language : English
Default : No
Forced : No

pb.wtf



Скачать 30 миль из ниоткуда через торрент https://a.radikal.ru/a33/1904/83/90bf843f402b.png Скачать фильм 30 миль из ниоткуда через торрент бесплантно в хорошем качестве Описание: В центре сюжета находятся пятеро старых друзей, знакомых еще со времен учебы в колледже. Они не общались друг с другом уже ... 10 10 3
Торрент: Зарегистрирован [2019-04-12 10:23] · скачан: 112 раз
Статус: T временная
Размер: 3.76 GB
Как cкачать? Как скачать 30 миль из ниоткуда через торрент | qTorrent

28-11-2019 20:33  

Отключить всю рекламу на сайте

    Дорогой пользователь! Огромная просьба, поблагодарите релизера, оцените раздачу и оставьте свои комментарий, если Вы скачали 30 миль из ниоткуда через торрент бесплатно! Внесите свою лепту в развитие PiratBit!
    Комментировать посты могут только пользователи прошедшие не сложную регистрацию
    Показать сообщения:    

    30 миль из ниоткуда через торрент
    Скачать бесплатно 30 миль из ниоткуда
    30 миль из ниоткуда скачать торрент
    30 миль из ниоткуда смотреть онлайн
    Cкачать фильм 30 миль из ниоткуда бесплатно
    30 миль из ниоткуда скачать торрент в хорошем качестве
    30 миль из ниоткуда смотреть онлайн бесплатно в хорошем качестве


    Вы не можете начинать темы
    Вы не можете отвечать на сообщения
    Вы не можете редактировать свои сообщения
    Вы не можете удалять свои сообщения
    Вы не можете голосовать в опросах
    Вы не можете прикреплять файлы к сообщениям
    Вы можете скачивать файлы