Доктор Стрэндж

Лицензия

Добыча

Дубляж

Дом дракона

1 сезон

Тор

Дубляж

В эфире

Дубляж

Там, где раки поют

MVO

Властелин колец

1 сезон

GLOBAL

pack

Рекомендуем

30

Пиратка

ВАЖНО

ВАЖНО

Ghostwire

Пиратка

jed

RePack

nioh2

RePack

RDR2

RePack

NEED FOR SPEED™ PAYBACK

RePack

скачать торрент

Кинопоиск HD

Острые козырьки 6 сезон

6 сезон

FAR CRY 6

RePack

скачать торрент

Лицензия

скачать торрент

MVO

1

1 сезон

скачать торрент

1 сезон

скачать торрент

Лицензия

  

Близко / Close (Вики Джуисон) [2019, боевик, триллер, BDRemux 1080p] MVO [HDRezka]

Близко через торрент pb.wtf

Размер: 14.55 GB | Добавлен: 3 года 7 мес. назад | Торрент скачан:76 раз
Смотреть онлайн | Скачать   

12-04-2019 16:35 Близко Скачать торрент  

Близко / Close«Trained to Protect. Born to Survive»

Год выпуска: 2019
Страна: Великобритания, США
Жанр: боевик, триллер
Продолжительность: 01:34:29
Перевод: Профессиональный многоголосый | HDRezka
Субтитры: Английские
Режиссер: Вики Джуисон
В ролях:

Нуми Рапас (Sam Carlson), Оливия Джуисон (Sarah), Абделлатиф Чауки (Joe), Софи Нелисс (Zoe Tanner), Хув Парментер (Adam), Чериз Сильвестри (Camille Simard), Индира Варма (Rima Hassine), Саргон Йельда (Anas), Робин Кермод (Edward), Чарли Палмер Ротуэлл (Nico), Оуэн Мэкен (Conall Sinclair), Акин Гази (Alik)
Описание:
Сюжет повествует об эксперте по безопасности Сэм, которую нанимает богатая семья, чтобы она защитила Зои, избалованную наследницу их бизнес-империи. Вскоре на девушку открывают настоящую охоту, и Сэм остается ее единственным шансом на выживание.
Рейтинг:

Качество: BDRemux 1080p
Формат: MKV
Видео: MPEG-4 AVC, 20.0 Мбит/с, 1920x1080
Аудио №1: русский / AC3, 2 ch, 192 Кбит/с - Профессиональный (многоголосый закадровый) HDRezka
Аудио №2: английский / DTS-HD MA, 6 ch, 1860 Кбит/с
Навигация по главам: есть
***Релиз без рекламы!!!***

General
Unique ID : 40991983064136677696865330172582026324 (0x1ED6C4CDDE53E9D402964C132B2DDC54)
Complete name : G:\Close.2019.REMUX.mkv
Format : Matroska
Format version : Version 4 / Version 2
File size : 14.5 GiB
Duration : 1 h 34 min
Overall bit rate mode : Variable
Overall bit rate : 22.0 Mb/s
Encoded date : UTC 2019-04-12 00:18:02
Writing application : mkvmerge v20.0.0 ('I Am The Sun') 64-bit
Writing library : libebml v1.3.5 + libmatroska v1.4.8

Video
ID : 1
Format : AVC
Format/Info : Advanced Video Codec
Format profile : [email protected]
Format settings : CABAC / 4 Ref Frames
Format settings, CABAC : Yes
Format settings, RefFrames : 4 frames
Codec ID : V_MPEG4/ISO/AVC
Duration : 1 h 34 min
Bit rate mode : Variable
Bit rate : 20.0 Mb/s
Maximum bit rate : 35.0 Mb/s
Width : 1 920 pixels
Height : 1 080 pixels
Display aspect ratio : 16:9
Frame rate mode : Constant
Frame rate : 24.000 FPS
Standard : NTSC
Color space : YUV
Chroma subsampling : 4:2:0
Bit depth : 8 bits
Scan type : Progressive
Bits/(Pixel*Frame) : 0.402
Stream size : 13.2 GiB (91%)
Language : English
Default : Yes
Forced : No
Color range : Limited
Color primaries : BT.709
Transfer characteristics : BT.709
Matrix coefficients : BT.709

Audio #1
ID : 2
Format : AC-3
Format/Info : Audio Coding 3
Codec ID : A_AC3
Duration : 1 h 34 min
Bit rate mode : Constant
Bit rate : 192 kb/s
Channel(s) : 2 channels
Channel positions : Front: L R
Sampling rate : 48.0 kHz
Frame rate : 31.250 FPS (1536 SPF)
Bit depth : 16 bits
Compression mode : Lossy
Stream size : 130 MiB (1%)
Title : MVO HDRezka
Language : Russian
Service kind : Complete Main
Default : Yes
Forced : No

Audio #2
ID : 3
Format : DTS
Format/Info : Digital Theater Systems
Format profile : MA / Core
Codec ID : A_DTS
Duration : 1 h 34 min
Bit rate mode : Variable / Constant
Bit rate : 1 860 kb/s / 1 509 kb/s
Channel(s) : 6 channels
Channel positions : Front: L C R, Side: L R, LFE
Sampling rate : 48.0 kHz
Frame rate : 93.750 FPS (512 SPF)
Bit depth : 16 bits
Compression mode : Lossless / Lossy
Stream size : 1.23 GiB (8%)
Language : English
Default : No
Forced : No

Text
ID : 4
Format : UTF-8
Codec ID : S_TEXT/UTF8
Codec ID/Info : UTF-8 Plain Text
Duration : 1 h 27 min
Bit rate : 31 b/s
Count of elements : 688
Stream size : 20.3 KiB (0%)
Language : English
Default : No
Forced : No

Menu
00:00:00.000 : en:Chapter 01
00:07:33.541 : en:Chapter 02
00:13:05.458 : en:Chapter 03
00:23:29.208 : en:Chapter 04
00:34:15.333 : en:Chapter 05
00:40:17.041 : en:Chapter 06
00:51:18.208 : en:Chapter 07
00:57:52.541 : en:Chapter 08
01:04:21.375 : en:Chapter 09
01:13:08.000 : en:Chapter 10
01:18:06.750 : en:Chapter 11
01:26:20.083 : en:Chapter 12



Скачать Близко через торрент https://c.radikal.ru/c27/1904/6c/d7641eeeb9cf.png Скачать, смотреть онлайн Близко бесплантно в хорошем качестве Описание: Сюжет повествует об эксперте по безопасности Сэм, которую нанимает богатая семья, чтобы она защитила Зои, избалованную наследницу ... 9.7 10 6
Торрент: Зарегистрирован [2019-04-12 16:35] · скачан: 76 раз
Статус: T временная
Размер: 14.55 GB
Как cкачать? Как скачать Близко через торрент | UTorrent

% Раздел Тема Автор DL S | L
Фильмы 2019-2020 [DVDrip, WEB-DLRip, HDrip] (DUB, MVO) [ 1.46 GB ] Близко / Close | HDRezka Studio | BDRip Twi7ter Скачать
1 | 0
Фильмы 2019-2020 [DVDrip, WEB-DLRip, HDrip] (DUB, MVO) [ 1.46 GB ] Близко / Close | HDRezka Studio | BDRip bober100 Скачать
1 | 0
Фильмы 2019-2020 [DVDrip, WEB-DLRip, HDrip] (DUB, MVO) [ 1.6 GB ] Близко / Close | HDRezka Studio | WEBRip-AVC bober100 Скачать
1 | 0
Фильмы (WEB-DL 720p, 1080p) [ 3.07 GB ] Близко / Close | HDRezka Studio | 1080p bober100 Скачать
1 | 0

28-11-2019 20:33  


Отключить вcю реклaмy на сайте, в т.ч. и в плеере онлайн просмотра!

    Дорогой пользователь! Огромная просьба, поблагодарите релизера, оцените раздачу и оставьте свои комментарий, если Вы скачали Близко через торрент бесплатно!!
    Комментировать посты могут только пользователи прошедшие не сложную регистрацию
    Показать сообщения:    


    Близко через торрент
    Скачать бесплатно Близко
    Близко скачать торрент
    Близко смотреть онлайн
    Cкачать фильм Близко бесплатно
    Близко скачать торрент в хорошем качестве
    Близко смотреть онлайн бесплатно в хорошем качестве
    Вы не можете начинать темы
    Вы не можете отвечать на сообщения
    Вы не можете редактировать свои сообщения
    Вы не можете удалять свои сообщения
    Вы не можете голосовать в опросах
    Вы не можете прикреплять файлы к сообщениям
    Вы можете скачивать файлы
    Близко / Close [2019, боевик, триллер, BDRemux 1080p] MVO [HDRezka] смотреть онлайн, скачать торрент picoco.icu