Ссылка на приватное зеркало нашего сайта всего за 1$. Внимание количество ограничено!!!

2 сезон

iTunes

1 сезон

1

iTunes

iTunes

iTunes

1 сезон

RePack

30

ИГРА 18+

pack

ВАЖНО

!!Акция!!

Alien_RageХит недели

RePack

MK11
pack

Забери бонус

RePack

jed

!!Акция!!

Alien_Rage

RePack

fifa19

RePack

Assassins Creed: Odyssey

RePack

NEED FOR SPEED™ PAYBACK

4 сезон

9 сезон

Бесстыжие 9 сезон

Все сериалы

все сериалы на PB.wtf

RePack

FAR CRY 5
  

Московские тайны. Опасный переплет / Серии: 1-2 из 2 (Антон Шарапов) [2019, Детектив, криминал, SATRip] pb.wtf

Московские тайны. Опасный переплет через торрент pb.wtf

Размер: 1.17 GB | Добавлен: 1 год 6 мес. назад | Торрент скачан:62 раза
Скачать  

13-04-2019 08:32 Московские тайны. Опасный переплет Скачать торрент  

Московские тайны. Опасный переплетГод выпуска: 2019
Страна: Россия
Жанр: Детектив, криминал
Продолжительность: ~ 00:47:00
Субтитры: отсутствуют

Режиссер: Антон Шарапов

скриншот  

В ролях:

Анна Старшенбаум, Евгений Пронин, Павел Усачев, Владислав Ветров, Екатерина Семёнова, Александр Робак, Алексей Лонгин, Иван Мамонов

Описание:

В Российской Государственной Библиотеке – знаменитой «Ленинке» – страшный переполох: молодой парень подошел сдать книгу и вдруг упал замертво. Налицо все признаки отравления. Что это – теракт в непосредственной близости от Кремля? Разборки наркоторговцев? Личная месть? Версии отпадают одна за другой, а следователю Насте Вяземской не дают покоя маленькие странности… Что за несуразная одежда висит в шкафу покойного? Зачем он записал телефон какой-то вахтерши? И если в его квартире нет ни одной книги, что ему понадобилось в «Ленинке»? Времени на долгие раздумья нет: неизвестно, где и как убитого настигла отрава, и кого она подстерегает еще.

Качество: SATRip
Формат: AVI

Видео: XviD, 1700 Кбит/с, 720x400
Аудио: MP3, 2 ch, 192 Кбит/с
скриншот  скриншот  скриншот  скриншот  

Общее
Полное имя : D:\Moskovskie.tayni.Opasnyi.pereplet.2018.XviD.SATRip.25Kuzmich\Moskovskie.tayni.Opasnyi.pereplet.(01.seriya.iz.02).XviD.SATRip.25Kuzmich.avi
Формат : AVI
Формат/Информация : Audio Video Interleave
Размер файла : 599 Мбайт
Продолжительность : 43 м. 55 с.
Общий поток : 1908 Кбит/сек
Программа кодирования : VirtualDubMod 1.5.10.3 | www.virtualdub-fr.org || (build 2550/release)
Библиотека кодирования : VirtualDubMod build 2550/release

Видео
Идентификатор : 0
Формат : MPEG-4 Visual
Профиль формата : Advanced Simple@L5
Параметр BVOP формата : 1
Параметр QPel формата : Нет
Параметр GMC формата : Без точки перехода
Параметр матрицы формата : Default (MPEG)
Идентификатор кодека : XVID
Идентификатор кодека/Подсказка : XviD
Продолжительность : 43 м. 55 с.
Битрейт : 1632 Кбит/сек
Ширина : 720 пикселей
Высота : 400 пикселей
Соотношение сторон : 16:9
Частота кадров : 25,000 кадров/сек
Цветовое пространство : YUV
Субдискретизация насыщенности : 4:2:0
Битовая глубина : 8 бит
Тип развёртки : Прогрессивная
Метод сжатия : С потерями
Бит/(Пиксели*Кадры) : 0.227
Размер потока : 513 Мбайт (86%)
Библиотека кодирования : XviD 73

Аудио
Идентификатор : 1
Формат : MPEG Audio
Версия формата : Version 1
Профиль формата : Layer 3
Режим : Joint stereo
Расширение режима : MS Stereo
Идентификатор кодека : 55
Идентификатор кодека/Подсказка : MP3
Продолжительность : 43 м. 55 с.
Вид битрейта : Постоянный
Битрейт : 192 Кбит/сек
Каналы : 2 канала
Частота : 48,0 КГц
Метод сжатия : С потерями
Размер потока : 60,3 Мбайт (10%)
Выравнивание : Соединение по промежуткам
Библиотека кодирования : LAME3.99r
Настройки программы : -m j -V 4 -q 2 -lowpass 18.6 -b 192

pb.wtf



Скачать Московские тайны. Опасный переплет через торрент https://i109.fastpic.ru/big/2019/0412/04/2cb96c87356aaed7a1c75f904b43fa04.jpg Скачать фильм Московские тайны. Опасный переплет через торрент бесплантно в хорошем качестве Описание: В Российской Государственной Библиотеке – знаменитой «Ленинке» – страшный переполох: молодой парень подошел сдать книгу и вдруг ... 10 10 4
Торрент: Зарегистрирован [2019-04-13 08:32] · скачан: 62 раз
Статус: √ проверено
Размер: 1.17 GB
Как cкачать? Как скачать Московские тайны. Опасный переплет через торрент | qTorrent

% Раздел Тема Автор DL S | L
Наши сериалы [ 2.03 GB ] Московские тайны. Опасный переплет / Серии: 1-2 из 2 [2019 WEB-DL 720p] bober100 Скачать
1 | 0
Наши сериалы [ 3.28 GB ] Московские тайны. Опасный переплет / Серии: 1-2 из 2 [2019 WEB-DL 1080p] bober100 Скачать
1 | 0
Наши сериалы [ 1.08 GB ] Московские тайны. Опасный переплет / Сезон-3 / Серии: 1-2 из 2 [2019 SATRip-AVC] aleksan55 Скачать
1 | 0

28-11-2019 20:33  

Отключить всю рекламу на сайте

    Дорогой пользователь! Огромная просьба, поблагодарите релизера, оцените раздачу и оставьте свои комментарий, если Вы скачали Московские тайны. Опасный переплет через торрент бесплатно! Внесите свою лепту в развитие PiratBit!
    Комментировать посты могут только пользователи прошедшие не сложную регистрацию
    Показать сообщения:    

    Московские тайны. Опасный переплет через торрент
    Скачать бесплатно Московские тайны. Опасный переплет
    Московские тайны. Опасный переплет скачать торрент
    Московские тайны. Опасный переплет смотреть онлайн
    Cкачать фильм Московские тайны. Опасный переплет бесплатно
    Московские тайны. Опасный переплет скачать торрент в хорошем качестве
    Московские тайны. Опасный переплет смотреть онлайн бесплатно в хорошем качестве


    Вы не можете начинать темы
    Вы не можете отвечать на сообщения
    Вы не можете редактировать свои сообщения
    Вы не можете удалять свои сообщения
    Вы не можете голосовать в опросах
    Вы не можете прикреплять файлы к сообщениям
    Вы можете скачивать файлы