Всегда рабочее зеркало просто перед .vidak.icu напиши любое слово или цифру, Пример http://tkn.vidak.icu

>

7.4

iTunes

7.4

2 сезон

6.6

iTunes

1

7.4

2 сезон

7.2

iTunes

6.0

MVO

13

6.1

iTunes

8.3

Пиратка

30

ULTIMATE

pack

9.9

Лицензия

ВАЖНО

ИГРА 18+

pack

7.3

RePack

MK11

7.7

RePack

jed

7.8

RePack

fifa19

8.5

RePack

RDR2

RePack

NEED FOR SPEED™ PAYBACK

1 сезон

9 сезон

Бесстыжие 9 сезон

Все сериалы

все сериалы на PB.wtf

RePack

FAR CRY 5

Anonymous, добрый вечер, мы катастрофически не успеваем собрать деньги на оплату серверов, помогите нам пожалуйста 5,10,15р., для нас важна любая помощь . В качестве благодарности мы отключим Вам всю рекламу на сайте (укажите свой ник в строку Ваше имя)!

×
  
Magnet ссылка

Графиня Дракула / Countess Dracula (Петер Шашди) [1971, ужасы, BDRip 1080p by msltel] AVO pb.wtf

Графиня Дракула через торрент pb.wtf

Размер: 12.2 GB | Добавлен: 2 года 9 мес. назад | Торрент скачан:2 раза
Смотреть онлайн Графиня Дракула | Скачать    Ребята, помогите собрать деньги на оплату серверов!!!

13-04-2019 09:58 Графиня Дракула Скачать торрент  

Название: Графиня Дракула
Оригинальное название: Countess Dracula
Год выпуска: 1971
Страна: Великобритания
Жанр: ужасы
Продолжительность: 01:33:18
Перевод: авторский

Режиссер: Петер шашди
В ролях: Ингрид Питт, Найджел Грин, Шандор Элеш, Морис Денэм, Пейшнс Колльер, Питер Джефри, Лесли-Энн Даун, Леон Лиссек, Джесси Эванс, Андреа Лоуренс

О фильме: XVII век. Венгрия. Графиня Элизабет Надашди решает, что её молодой облик и сексуальная привлекательность могут быть временно восстановлены, если она искупается в ванне из крови молодых женщин. Она уговаривает своего бывшего возлюбленного и управляющего замком капитана Доби помогать ей в похищении и убийстве местных девочек, одновременно с этим ища сексуальные приключения в обществе лейтенанта Имре Тота. Для сокрытия своих преступлений графиня выдаёт себя за свою юную дочь. Однако, в конце концов, Доби сообщает молодому человеку тайну Элизабет. Впрочем, графиня даже довольна сложившейся ситуацией — она шантажом заставляет Имре жениться на ней... (Википедия). В основе фильма лежит книга Валентины Пенроуз «Кровавая графиня» (1962).



Качество: BDRip 1080p
Формат: MKV
Видео: MPEG-4 AVC, 17 Mбит/с, 1788x1080
Аудио 1: русский, AC3, 192 kbps, 2 ch, 48 kHz [авторский, Владимир Сонькин]
Аудио 2: английский, DTS, 1509 kbps, 2 ch, 48 kHz [оригинал]
Субтитры: английские
Главы/чаптеры
Общее
Уникальный идентификатор : 187128297786702924524121066627519846226 (0x8CC7996626DA4C499365B47307A99752)
Полное имя : D:\Video\Графиня Дракула.1971.BDRip 1080p by msltel.mkv
Формат : Matroska
Версия формата : Version 4
Размер файла : 12,2 Гбайт
Продолжительность : 1 ч. 33 м.
Общий поток : 18,7 Мбит/сек
Название фильма : Rip by msltel
Дата кодирования : UTC 2019-04-12 12:26:12
Программа кодирования : mkvmerge v8.2.0 ('World of Adventure') 64bit
Библиотека кодирования : libebml v1.3.1 + libmatroska v1.4.2

Видео
Идентификатор : 1
Формат : AVC
Формат/Информация : Advanced Video Codec
Профиль формата : High@L4.1
Настройки формата : CABAC / 4 Ref Frames
Параметр CABAC формата : Да
Параметр RefFrames формата : 4 кадра
Идентификатор кодека : V_MPEG4/ISO/AVC
Продолжительность : 1 ч. 33 м.
Битрейт : 17,0 Мбит/сек
Ширина : 1788 пикселей
Высота : 1080 пикселей
Соотношение сторон : 5:3
Режим частоты кадров : Постоянный
Частота кадров : 23,976 (24000/1001) кадра/сек
Цветовое пространство : YUV
Субдискретизация насыщенности : 4:2:0
Битовая глубина : 8 бит
Тип развёртки : Прогрессивная
Бит/(Пиксели*Кадры) : 0.368
Размер потока : 11,1 Гбайт (91%)
Библиотека кодирования : x264 core 157 r2935 545de2f
Настройки программы : cabac=1 / ref=4 / deblock=1:-2:-2 / analyse=0x3:0x113 / me=umh / subme=11 / psy=1 / psy_rd=1.00:0.15 / mixed_ref=1 / me_range=32 / chroma_me=1 / trellis=2 / 8x8dct=1 / cqm=0 / deadzone=21,11 / fast_pskip=0 / chroma_qp_offset=-3 / threads=6 / lookahead_threads=1 / sliced_threads=0 / nr=0 / decimate=1 / interlaced=0 / bluray_compat=0 / constrained_intra=0 / bframes=11 / b_pyramid=2 / b_adapt=2 / b_bias=0 / direct=1 / weightb=1 / open_gop=0 / weightp=2 / keyint=230 / keyint_min=23 / scenecut=40 / intra_refresh=0 / rc_lookahead=40 / rc=crf / mbtree=1 / crf=19.2 / qcomp=0.60 / qpmin=0 / qpmax=69 / qpstep=4 / vbv_maxrate=50000 / vbv_bufsize=62500 / crf_max=0.0 / nal_hrd=none / filler=0 / ip_ratio=1.40 / aq=1:1.00
Язык : English
Default : Да
Forced : Нет

Аудио #1
Идентификатор : 2
Формат : AC-3
Формат/Информация : Audio Coding 3
Коммерческое название : Dolby Digital
Идентификатор кодека : A_AC3
Продолжительность : 1 ч. 33 м.
Вид битрейта : Постоянный
Битрейт : 192 Кбит/сек
Каналы : 2 канала
Channel layout : L R
Частота : 48,0 КГц
Частота кадров : 31,250 кадров/сек (1536 SPF)
Битовая глубина : 16 бит
Метод сжатия : С потерями
Размер потока : 128 Мбайт (1%)
Заголовок : Владимир Сонькин
Язык : Russian
ServiceKind/String : Complete Main
Default : Да
Forced : Нет

Аудио #2
Идентификатор : 3
Формат : DTS
Формат/Информация : Digital Theater Systems
Идентификатор кодека : A_DTS
Продолжительность : 1 ч. 33 м.
Вид битрейта : Постоянный
Битрейт : 1509 Кбит/сек
Каналы : 2 канала
Channel layout : L R
Частота : 48,0 КГц
Частота кадров : 93,750 кадра/сек (512 SPF)
Битовая глубина : 24 бит
Метод сжатия : С потерями
Размер потока : 1007 Мбайт (8%)
Заголовок : original
Язык : English
Default : Нет
Forced : Нет

Текст
Идентификатор : 4
Формат : UTF-8
Идентификатор кодека : S_TEXT/UTF8
Идентификатор кодека/Информация : UTF-8 Plain Text
Продолжительность : 1 ч. 32 м.
Битрейт : 53 бит/сек
ElementCount : 1329
Размер потока : 35,8 Кбайт (0%)
Заголовок : английские
Язык : English
Default : Нет
Forced : Нет

Меню
00:00:00.000 : :Chapter 1
00:07:50.428 : :Chapter 2
00:14:13.644 : :Chapter 3
00:23:47.634 : :Chapter 4
00:29:07.370 : :Chapter 5
00:37:04.472 : :Chapter 6
00:46:20.736 : :Chapter 7
00:53:32.375 : :Chapter 8
01:00:55.693 : :Chapter 9
01:09:56.024 : :Chapter 10
01:16:58.863 : :Chapter 11
01:24:41.993 : :Chapter 12
pb.wtf



Скачать Графиня Дракула через торрент https://d.radikal.ru/d16/1904/c5/7d9d7c762050.jpg Скачать, смотреть онлайн Графиня Дракула бесплантно в хорошем качестве О фильме: XVII век. Венгрия. Графиня Элизабет Надашди решает, что её молодой облик и сексуальная привлекательность могут быть временно ... 10 10 1
Info! Золотая раздача, скачанное не засчитывается.
Торрент: Зарегистрирован [2019-04-13 09:58] · скачан: 2 раз
Статус: √ проверено
Размер: 12.2 GB
Как cкачать? Как скачать Графиня Дракула через торрент | UTorrent

% Раздел Тема Автор DL S | L
Фильмы с авторской озвучкой [ 4.22 GB ] Графиня Дракула / Countess Dracula [1971 BDRip 720p by msltel] AVO msltel Скачать
1 | 0

28-11-2019 20:33  

Отключить всю рекламу на сайте

    Дорогой пользователь! Огромная просьба, поблагодарите релизера, оцените раздачу и оставьте свои комментарий, если Вы скачали Графиня Дракула через торрент бесплатно!
    Комментировать посты могут только пользователи прошедшие не сложную регистрацию
    Показать сообщения:    

    Графиня Дракула через торрент
    Скачать бесплатно Графиня Дракула
    Графиня Дракула скачать торрент
    Графиня Дракула смотреть онлайн
    Cкачать фильм Графиня Дракула бесплатно
    Графиня Дракула скачать торрент в хорошем качестве
    Графиня Дракула смотреть онлайн бесплатно в хорошем качестве


    Вы не можете начинать темы
    Вы не можете отвечать на сообщения
    Вы не можете редактировать свои сообщения
    Вы не можете удалять свои сообщения
    Вы не можете голосовать в опросах
    Вы не можете прикреплять файлы к сообщениям
    Вы можете скачивать файлы