Ссылка на приватное зеркало нашего сайта всего за 1$. Внимание количество ограничено!!!

2 сезон

iTunes

1 сезон

1

iTunes

iTunes

iTunes

1 сезон

RePack

30

ИГРА 18+

pack

ВАЖНО

!!Акция!!

Alien_RageХит недели

RePack

MK11
pack

Забери бонус

RePack

jed

!!Акция!!

Alien_Rage

RePack

fifa19

RePack

Assassins Creed: Odyssey

RePack

NEED FOR SPEED™ PAYBACK

4 сезон

9 сезон

Бесстыжие 9 сезон

Все сериалы

все сериалы на PB.wtf

RePack

FAR CRY 5
  

Как выйти замуж. Инструкция / Серии: 1-4 из 4 (Аксинья Гог) [2019, комедия, WEB-DL 1080p] pb.wtf

Как выйти замуж. Инструкция через торрент pb.wtf

Качают: 1 [ 0 KB/s ]
Размер: 6.18 GB | Добавлен: 1 год 6 мес. назад | Торрент скачан:101 раз
Скачать  

13-04-2019 12:52 Как выйти замуж. Инструкция Скачать торрент  

Как выйти замуж. Инструкция Год выпуска: 2019
Страна: Россия
Жанр: комедия
Продолжительность: ~ 00:48:00 серия
Перевод: Не требуется
Субтитры: отсутствуют

Режиссер: Аксинья Гог



В ролях:

Яна Гурьянова, Петар Зекавица, Ёла Санько, Владимир Жеребцов, Амбарцум Кабанян, Ольга Дибцева, Юрий Быков, Алексей Утин, Александр Самохин, Сергей Чирков, Алексей Литвиненко, Константин Чепурин

Описание:

Главная героиня комедии «Как выйти замуж. Инструкция» — успешная, но очень одинокая журналистка Полина. После измены бывшего возлюбленного она боится заводить серьезные отношения с мужчинами, чтобы вновь не ошибиться с выбором. Однажды работа девушки приносит ей интересное знакомство и необычный подарок — магический браслет. С его помощью она может «примерить жизнь» с понравившимся ей мужчиной и перенестись на три года вперед, чтобы проверить, как сложится их совместное будущее. В итоге Полина отправляется в увлекательное путешествие по своим альтернативным судьбам, но поиски идеального жениха неожиданно затягиваются.

Качество: WEB-DL 1080p
Формат: MKV

Видео: MPEG-4 AVC, ~ 5000 Кбит/с, 1920x1080
Аудио: AC3, 2 ch, 192 Кбит/с
скриншот  скриншот  скриншот  

Общее
Уникальный идентификатор : 171424793822519650449980914506122767953 (0x80F736E083B8476B8284CE3E441DAE51)
Полное имя : D:\Kak.vyyti.zamuzh.Instruktsiya.2018.WEB-DL.(1080p).Getty\Kak.vyyti.zamuzh.Instruktsiya.e01.2018.WEB-DL.(1080p).Getty.mkv
Формат : Matroska
Версия формата : Version 4 / Version 2
Размер файла : 1,44 Гбайт
Продолжительность : 40 м. 16 с.
Режим общего битрейта : Постоянный
Общий поток : 5134 Кбит/сек
Название фильма : Kak.vyyti.zamuzh.Instruktsiya.e01.2018.WEB-DL.(1080p).Getty
Дата кодирования : UTC 2019-04-12 20:18:39
Программа кодирования : mkvmerge v7.8.0 ('River Man') 32bit built on Mar 27 2015 16:18:02
Библиотека кодирования : libebml v1.3.1 + libmatroska v1.4.2

Видео
Идентификатор : 1
Формат : AVC
Формат/Информация : Advanced Video Codec
Профиль формата : Baseline@L4
Параметр CABAC формата : Нет
Параметр RefFrames формата : 4 кадра
Идентификатор кодека : V_MPEG4/ISO/AVC
Продолжительность : 40 м. 16 с.
Вид битрейта : Постоянный
Битрейт : 5000 Кбит/сек
Ширина : 1920 пикселей
Высота : 1080 пикселей
Соотношение сторон : 16:9
Режим частоты кадров : Постоянный
Частота кадров : 25,000 кадров/сек
Стандарт вещания : PAL
Цветовое пространство : YUV
Субдискретизация насыщенности : 4:2:0
Битовая глубина : 8 бит
Тип развёртки : Прогрессивная
Бит/(Пиксели*Кадры) : 0.096
Размер потока : 1,36 Гбайт (94%)
Default : Да
Forced : Нет
Цветовой диапазон : Limited
Основные цвета : BT.709
Характеристики трансфера : BT.709
Коэффициенты матрицы : BT.709

Аудио
Идентификатор : 2
Формат : AC-3
Формат/Информация : Audio Coding 3
Расширение режима : CM (complete main)
Параметр Endianness формата : Big
Идентификатор кодека : A_AC3
Продолжительность : 40 м. 16 с.
Вид битрейта : Постоянный
Битрейт : 192 Кбит/сек
Каналы : 2 канала
Расположение каналов : Front: L R
Частота : 48,0 КГц
Частота кадров : 31,250 кадров/сек (1536 spf)
Метод сжатия : С потерями
Размер потока : 55,3 Мбайт (4%)
Default : Да
Forced : Нет

pb.wtf



Скачать Как выйти замуж. Инструкция через торрент http://img14.lostpic.net/2019/04/12/dac2b5a0a14564689f3f8535a9681bca.jpg Скачать фильм Как выйти замуж. Инструкция через торрент бесплантно в хорошем качестве Описание: Главная героиня комедии «Как выйти замуж. Инструкция» — успешная, но очень одинокая журналистка Полина. После измены бывшего ... 10 10 5
Торрент: Зарегистрирован [2019-04-13 12:52] · скачан: 101 раз
Статус: √ проверено
Размер: 6.18 GB
Как cкачать? Как скачать Как выйти замуж. Инструкция через торрент | qTorrent

% Раздел Тема Автор DL S | L
Наши сериалы [ 2.34 GB ] Как выйти замуж. Инструкция / Серии: 1-4 из 4 [2019 SATRip] bober100 Скачать
1 | 0
Наши сериалы [ 2.26 GB ] Как выйти замуж. Инструкция / Серии: 1-4 из 4 [2019 WEBRip-AVC] aleksan55 Скачать
1 | 0

28-11-2019 20:33  

Отключить всю рекламу на сайте

    Дорогой пользователь! Огромная просьба, поблагодарите релизера, оцените раздачу и оставьте свои комментарий, если Вы скачали Как выйти замуж. Инструкция через торрент бесплатно! Внесите свою лепту в развитие PiratBit!
    Комментировать посты могут только пользователи прошедшие не сложную регистрацию
    Показать сообщения:    

    Как выйти замуж. Инструкция через торрент
    Скачать бесплатно Как выйти замуж. Инструкция
    Как выйти замуж. Инструкция скачать торрент
    Как выйти замуж. Инструкция смотреть онлайн
    Cкачать фильм Как выйти замуж. Инструкция бесплатно
    Как выйти замуж. Инструкция скачать торрент в хорошем качестве
    Как выйти замуж. Инструкция смотреть онлайн бесплатно в хорошем качестве


    Вы не можете начинать темы
    Вы не можете отвечать на сообщения
    Вы не можете редактировать свои сообщения
    Вы не можете удалять свои сообщения
    Вы не можете голосовать в опросах
    Вы не можете прикреплять файлы к сообщениям
    Вы можете скачивать файлы