Ссылка на приватное зеркало всего за 1$. Внимание количество ограничено!!!

OK

1+1

iTunes

мы

OK

1

WEB-DLRip

Джокер

Пифагор

Ведьмак / The Witcher сериал

iTunes

ПШазам

ОК

Оно 2

iTunes

30
pack

Вам бонус

ВАЖНО

!!Акция!!

Alien_RageХит недели

RePack

Resident Evil 21

ИГРА 18+

pack

RePack

jed

RePack

fifa19

RePack

Assassins Creed: Odyssey

RePack

NEED FOR SPEED™ PAYBACK

4 сезон

9 сезон

Бесстыжие 9 сезон

Все сериалы

все сериалы на PB.wtf

RePack

FAR CRY 5
  

Августовский туман / Nebel im August (Кай Вессель) [2016, драма, военный, BDRip 1080p] MVO [GreenРай Studio] pb.wtf

Августовский туман через торрент pb.wtf

Раздают: 1 [ 0 KB/s ]
Размер: 6.75 GB | Добавлен: 9 мес. назад | Торрент скачан:154 раза
Скачать  

13-04-2019 14:52 Августовский туман Скачать торрент  

Августовский туман / Nebel im August
Год выпуска: 2016
Страна: Германия
Жанр: драма, военный
Продолжительность: 02:06:18
Перевод: Любительский (многоголосый) |
Субтитры: отсутствуют

Режиссер: Кай Вессель

rating

В ролях:

Иво Питцкер, Себастьян Кох, Томас Шуберт, Фритци Хаберландт, Генриетта Конфуриус, Бранко Самаровски, Давид Беннент, Жюль Херман, Никлас Пост, Карл Маркович

Описание:

Действие происходит в начале 40-х, в разгар Второй мировой, в южной Германии. Фильм рассказывает о мальчике-цыгане, который попадает в психиатрическую больницу, где проводят нацистские опыты над детьми. Ребёнок всеми силами старается выжить в этом страшном месте, а также спасти своих друзей, которые появились у него за то время, что он провёл здесь…

Качество: BDRip 1080p
Формат: MKV

Видео: MKV, 1920x810 (2.40:1), 23.976 fps, 7461 Кбит/с
Аудио: AAC, 2 ch, 192 Кбит/с
скриншот  скриншот  скриншот  скриншот  

General
Unique ID : 314923030890166606482801650811414282129 (0xECEBF833914011E2F0304FC707487F91)
Complete name : E:ГРИНРАЙNebel.im.August.2016.P.BDRip.1080p.mkv
Format : Matroska
Format version : Version 4 / Version 2
File size : 6.75 GiB
Duration : 2 h 6 min
Overall bit rate : 7 653 kb/s
Encoded date : UTC 2018-04-02 21:10:39
Writing application : mkvmerge v21.0.0 ('Tardigrades Will Inherit The Earth') 64-bit
Writing library : libebml v1.3.5 + libmatroska v1.4.8

Video
ID : 1
Format : AVC
Format/Info : Advanced Video Codec
Format profile : High@L4
Format settings : CABAC / 1 Ref Frames
Format settings, CABAC : Yes
Format settings, RefFrames : 1 frame
Format settings, GOP : M=1, N=30
Codec ID : V_MPEG4/ISO/AVC
Duration : 2 h 6 min
Bit rate : 7 461 kb/s
Width : 1 920 pixels
Height : 810 pixels
Display aspect ratio : 2.40:1
Frame rate mode : Constant
Frame rate : 23.976 (24000/1001) FPS
Color space : YUV
Chroma subsampling : 4:2:0
Bit depth : 8 bits
Scan type : Progressive
Bits/(Pixel*Frame) : 0.200
Stream size : 6.58 GiB (97%)
Language : English
Default : Yes
Forced : No

Audio
ID : 2
Format : AAC
Format/Info : Advanced Audio Codec
Format profile : LC
Codec ID : A_AAC-2
Duration : 2 h 6 min
Bit rate : 192 kb/s
Channel(s) : 2 channels
Channel positions : Front: L R
Sampling rate : 48.0 kHz
Frame rate : 46.875 FPS (1024 SPF)
Compression mode : Lossy
Stream size : 171 MiB (2%)
Language : English
Default : Yes
Forced : No

pb.wtf



Скачать Августовский туман через торрент https://d.radikal.ru/d41/1804/f2/e4eb67e70054.jpg Скачать фильм Августовский туман через торрент бесплантно в хорошем качестве Описание: Действие происходит в начале 40-х, в разгар Второй мировой, в южной Германии. Фильм рассказывает о мальчике-цыгане, который ... 9.5 10 4
Торрент: Зарегистрирован [2019-04-13 14:52] · скачан: 154 раз
Статус: T временная
Размер: 6.75 GB
Как cкачать? Как скачать Августовский туман через торрент | qTorrent

28-11-2019 20:33  

Отключить всю рекламу на сайте

14-05-2019 19:02 Августовский туман Скачать торрент  

отличный фильмpb.wtf



    Дорогой пользователь! Огромная просьба, поблагодарите релизера, оцените раздачу и оставьте свои комментарий, если Вы скачали Августовский туман через торрент бесплатно! Внесите свою лепту в развитие PiratBit!
    Комментировать посты могут только пользователи прошедшие не сложную регистрацию
    Показать сообщения:    

    Августовский туман через торрент
    Скачать бесплатно Августовский туман
    Августовский туман скачать торрент
    Августовский туман смотреть онлайн
    Cкачать фильм Августовский туман бесплатно
    Августовский туман скачать торрент в хорошем качестве
    Августовский туман смотреть онлайн бесплатно в хорошем качестве


    Вы не можете начинать темы
    Вы не можете отвечать на сообщения
    Вы не можете редактировать свои сообщения
    Вы не можете удалять свои сообщения
    Вы не можете голосовать в опросах
    Вы не можете прикреплять файлы к сообщениям
    Вы можете скачивать файлы