2 сезон

iTunes

1 сезон

1

iTunes

iTunes

iTunes

1 сезон

RePack

30

ИГРА 18+

pack

ВАЖНО

!!Акция!!

Alien_RageХит недели

RePack

MK11
pack

Забери бонус

RePack

jed

!!Акция!!

Alien_Rage

RePack

fifa19

RePack

Assassins Creed: Odyssey

RePack

NEED FOR SPEED™ PAYBACK

4 сезон

9 сезон

Бесстыжие 9 сезон

Все сериалы

все сериалы на PB.wtf

RePack

FAR CRY 5
  

Влюблённые женщины / Любовницы / Сезон: 1 / Серии: 1-12 из 12 (Дмитрий Лактионов) [2015, Мелодрама, SATRip] pb.wtf

Влюблённые женщины через торрент pb.wtf

Размер: 7.78 GB | Добавлен: 1 год 6 мес. назад | Торрент скачан:56 раз
Скачать  

13-04-2019 16:33 Влюблённые женщины Скачать торрент  

Влюблённые женщины / Любовницы Год выпуска: 2015
Страна: Украина
Жанр: Мелодрама
Продолжительность: ~ 00:50:00 серия
Перевод: Не требуется
Субтитры: отсутствуют

Режиссер: Дмитрий Лактионов



В ролях:

Екатерина Волкова, Дарья Екамасова, Екатерина Климова, Равшана Куркова, Антон Хабаров, Виктор Логинов, Кирилл Сафонов, Джулиано Ди Капуа, Станислав Эрклиевский, Константин Самоуков, Максим Дрозд, Александр Кобзарь, Арнас Федаравичюс, Сергей Калантай, Игорь Петрусенко, Оксана Воронина

Описание:

Кате, Тамаре, Свете и Жене чуть за тридцать, они дружат с детства. Пригород большого города так и остался для них родным. Девчонки после школы разлетелись на учебу, а потом возвратились в родные места и снова угнездились в милом небольшом городке, тем более, что до Москвы рукой подать. Дом, оставшийся от родителей, в котором живет Тамара – это их штаб, клуб, место постоянных встреч, можно сказать гнездо. Отличный врач Катерина, примерная мать двоих детей Тамара, успешный юрист Света и риэлтор по торговле недвижимостью Женька хотят любить и быть любимыми, но у всех отношения со вторыми половинками складываются непросто, подчас просто драматически. Жизнь все расставляет на свои места. Подруги уверены - ничто не страшно, если есть настоящая любовь. Мы знакомимся с подругами в момент сложных житейских ситуаций. Каждая из них пребывает в конфликте. С окружающими, с близкими, с самой собой. И каждая ищет любовь, борется за нее. Переплетение их судеб в переломном моменте и составляет основу сериала Героини переживают взлеты и падения, радость, счастье, страдания и одиночество. И неизменно поддерживают друг друга. Когда сюжет переходит в захватывающую кульминацию и неожиданный финал с разрешением всех неразрешимых ситуаций — героини понимает, что их жизнь уже никогда не будет такой, как прежде. Но они уцелели и их дружба – тоже.

Качество: SATRip
Формат: AVI

Видео: ~ 1550 Кбит/с, 704x368, 25 fps
Аудио: MP3, 2 ch, 192 Кбит/с, 48.0 kHz

Общее
Полное имя : D:\Влюблённые женщины (Любовницы) (2015)\Влюблённые женщины (Любовницы).(01.seriya).2015.XviD.SATRip.by.simka.avi
Формат : AVI
Формат/Информация : Audio Video Interleave
Размер файла : 684 Мбайт
Продолжительность : 53 м. 5 с.
Общий поток : 1801 Кбит/сек
Программа кодирования : VirtualDubModRus 1.5.10.2 (build 2542/release)
Библиотека кодирования : VirtualDubMod build 2542/release

Видео
Идентификатор : 0
Формат : MPEG-4 Visual
Профиль формата : Advanced Simple@L5
Параметр BVOP формата : 1
Параметр QPel формата : Нет
Параметр GMC формата : Без точки перехода
Параметр матрицы формата : Default (MPEG)
Идентификатор кодека : XVID
Идентификатор кодека/Подсказка : XviD
Продолжительность : 53 м. 5 с.
Битрейт : 1600 Кбит/сек
Ширина : 704 пикселя
Высота : 368 пикселей
Соотношение сторон : 1,913
Частота кадров : 25,000 кадров/сек
Цветовое пространство : YUV
Субдискретизация насыщенности : 4:2:0
Битовая глубина : 8 бит
Тип развёртки : Прогрессивная
Метод сжатия : С потерями
Бит/(Пиксели*Кадры) : 0.247
Размер потока : 607 Мбайт (89%)
Библиотека кодирования : XviD 1.2.1 (UTC 2008-12-04)

Аудио
Идентификатор : 1
Формат : MPEG Audio
Версия формата : Version 1
Профиль формата : Layer 3
Режим : Joint stereo
Идентификатор кодека : 55
Идентификатор кодека/Подсказка : MP3
Продолжительность : 53 м. 5 с.
Вид битрейта : Постоянный
Битрейт : 192 Кбит/сек
Каналы : 2 канала
Частота : 48,0 КГц
Метод сжатия : С потерями
Размер потока : 72,9 Мбайт (11%)
Выравнивание : Соединение по промежуткам
Продолжительность промежутка : 40 мс. (1,00 видеокадр)
Время предзагрузки промежутка : 504 мс.
Библиотека кодирования : LAME3.99r
Настройки программы : -m j -V 4 -q 2 -lowpass 18.6 -b 192

pb.wtf



Скачать Влюблённые женщины через торрент http://s018.radikal.ru/i524/1510/0d/28945f5ca337.jpg Скачать фильм Влюблённые женщины через торрент бесплантно в хорошем качестве Описание: Кате, Тамаре, Свете и Жене чуть за тридцать, они дружат с детства. Пригород большого города так и остался для них родным. ... 10 10 3
Торрент: Зарегистрирован [2019-04-13 16:33] · скачан: 56 раз
Статус: √ проверено
Размер: 7.78 GB
Как cкачать? Как скачать Влюблённые женщины через торрент | qTorrent

% Раздел Тема Автор DL S | L
Наши сериалы [ 9.5 GB ] Влюблённые женщины / Любовницы / Сезон: 1 / Серии: 1-12 из 12 [2015 Мело HDTVRip-AVC] bober100 Скачать
1 | 0
Наши сериалы [ 26.18 GB ] Влюблённые женщины / Любовницы / Сезон: 1 / Серии: 1-12 из 12 [2015 Мело HDTV 1080i] bober100 Скачать
1 | 0

28-11-2019 20:33  

Отключить всю рекламу на сайте

    Дорогой пользователь! Огромная просьба, поблагодарите релизера, оцените раздачу и оставьте свои комментарий, если Вы скачали Влюблённые женщины через торрент бесплатно! Внесите свою лепту в развитие PiratBit!
    Комментировать посты могут только пользователи прошедшие не сложную регистрацию
    Показать сообщения:    

    Влюблённые женщины через торрент
    Скачать бесплатно Влюблённые женщины
    Влюблённые женщины скачать торрент
    Влюблённые женщины смотреть онлайн
    Cкачать фильм Влюблённые женщины бесплатно
    Влюблённые женщины скачать торрент в хорошем качестве
    Влюблённые женщины смотреть онлайн бесплатно в хорошем качестве


    Вы не можете начинать темы
    Вы не можете отвечать на сообщения
    Вы не можете редактировать свои сообщения
    Вы не можете удалять свои сообщения
    Вы не можете голосовать в опросах
    Вы не можете прикреплять файлы к сообщениям
    Вы можете скачивать файлы