Ссылка на приватное зеркало нашего сайта всего за 1$. Внимание количество ограничено!!!

2 сезон

iTunes

1 сезон

1

2 сезон

2 сезон

iTunes

1 сезон

RePack

30

Ultimate

ВАЖНО

ИГРА 18+

pack

RePack

MK11
pack

Забери бонус

RePack

jed

!!Акция!!

Alien_Rage

RePack

fifa19

RePack

Assassins Creed: Odyssey

RePack

NEED FOR SPEED™ PAYBACK

4 сезон

9 сезон

Бесстыжие 9 сезон

Все сериалы

все сериалы на PB.wtf

RePack

FAR CRY 5
  

911 служба спасения / 9-1-1 / Сезон: 2 / Серии: 1-18 из 18 (Брэдли Букер) [2018, Драма, WEB-DL 1080p] MVO [TVShows] pb.wtf

911 служба спасения через торрент pb.wtf

Размер: 47.45 GB | Добавлен: 1 год 5 мес. назад | Торрент скачан:10 раз
Скачать  

14-04-2019 05:46 911 служба спасения Скачать торрент  

911 служба спасения | 9-1-1

Год выпуска: 2018
Страна: США
Жанр: Драма
Продолжительность: ~ 00:45:00
Перевод: Профессиональный (многоголосый закадровый) | TVShows
Субтитры: английские

Режиссёр: Брэдли Букер

В ролях:

Анджела Бассетт, Конни Бриттон, Корина Мессиа, Бриэль Барбаска, Рэйчел Бритаг, Лондон Чешир, Адина ДеСоуза, Алекс Лойназ и другие.

Описание:

Сериал расскажет о работе полицейских, «Скорой помощи» и пожарной службы. Все они выполняют свой долг, часто рискуя жизнью и попадая в самые пугающие и шокирующие ситуации. Смысл их ежедневной работы состоит в охране безопасности улиц и помощи всем, кто в ней нуждается. Полицейские, пожарные и парамедики работают бок о бок в жестких условиях большого города. Эти экстренные службы должны стараться балансировать, спасая тех, кто находится в наиболее уязвимом положении, и при этом решать проблемы в их собственной жизни.




Качество: WEB-DL 1080p
Формат: MKV

Видео: 1920x1080 (16:9) | X264/MPEG4-AVC | ~6826 kbps | 23.976 fps
Аудио 1: AC3 | 48 KHz | 5.1 (Front: L С R Side: L R) + LFE | ~384 kbps [RUS]
Аудио 2: AC3 | 48 KHz | 5.1 (Front: L С R Side: L R) + LFE | ~640 kbps [ENG]


Реклама: Нет
Перевод и озвучивание TVShows
Format                      : Matroska
Format version              : Version 4 / Version 2
File size                   : 2.46 GiB
Duration                    : 44 min 50 s
Overall bit rate            : 7 852 kb/s
Encoded date                : UTC 2018-10-27 09:30:46
Writing application         : mkvmerge v24.0.0 ('Beyond The Pale') 64-bit
Writing library             : libebml v1.3.6 + libmatroska v1.4.9

Video
ID                          : 1
Format                      : AVC
Format/Info                 : Advanced Video Codec
Format profile              : High@L4
Format settings             : CABAC / 4 Ref Frames
Format settings, CABAC      : Yes
Format settings, ReFrames   : 4 frames
Codec ID                    : V_MPEG4/ISO/AVC
Duration                    : 44 min 50 s
Bit rate                    : 6 826 kb/s
Width                       : 1 920 pixels
Height                      : 1 080 pixels
Display aspect ratio        : 16:9
Frame rate mode             : Constant
Frame rate                  : 23.976 (24000/1001) FPS
Color space                 : YUV
Chroma subsampling          : 4:2:0
Bit depth                   : 8 bits
Scan type                   : Progressive
Bits/(Pixel*Frame)          : 0.137
Stream size                 : 2.14 GiB (87%)
Default                     : Yes
Forced                      : No
Color range                 : Limited
Color primaries             : BT.709
Transfer characteristics    : BT.709
Matrix coefficients         : BT.709

Audio #1
ID                          : 2
Format                      : AC-3
Format/Info                 : Audio Coding 3
Codec ID                    : A_AC3
Duration                    : 44 min 50 s
Bit rate mode               : Constant
Bit rate                    : 384 kb/s
Channel(s)                  : 6 channels
Channel positions           : Front: L C R, Side: L R, LFE
Sampling rate               : 48.0 kHz
Frame rate                  : 31.250 FPS (1536 SPF)
Bit depth                   : 16 bits
Compression mode            : Lossy
Stream size                 : 123 MiB (5%)
Title                       : TVShows
Language                    : Russian
Service kind                : Complete Main
Default                     : Yes
Forced                      : No

Audio #2
ID                          : 3
Format                      : E-AC-3
Format/Info                 : Enhanced Audio Coding 3
Codec ID                    : A_EAC3
Duration                    : 44 min 50 s
Bit rate mode               : Constant
Bit rate                    : 640 kb/s
Channel(s)                  : 6 channels
Channel positions           : Front: L C R, Side: L R, LFE
Sampling rate               : 48.0 kHz
Frame rate                  : 187.500 FPS (256 SPF)
Compression mode            : Lossy
Stream size                 : 205 MiB (8%)
Title                       : Original
Language                    : English
Service kind                : Complete Main
Default                     : No
Forced                      : No

Text
ID                          : 4
Format                      : UTF-8
Codec ID                    : S_TEXT/UTF8
Codec ID/Info               : UTF-8 Plain Text
Duration                    : 44 min 48 s
Bit rate                    : 94 b/s
Count of elements           : 970
Stream size                 : 31.0 KiB (0%)
Title                       : English
Language                    : English
Default                     : No
Forced                      : No
скриншот  скриншот  скриншот  
Когда раздача ведётся путём добавления новых серий, при каждом добавлении создётся новый торрент. Чтобы начать докачку новой серии, пользователям необходимо сделать следующее:
(1) остановить скачивание,
(2) удалить старый торрент у себя из клиента (старые серии удалять не надо),
(3) скачать новый торрент и запустить его у себя в клиенте вместо старого, при этом указать клиенту путь в старую папку, куда и должно происходить скачивание новых серий.
Ваш клиент при этом должен произвести хеширование (проверку) старой папки (если не производит сам - помогите ему сделать это), и будет докачивать только те серии, которых у вас ещё нет. Старые серии при этом не удаляются, а продолжают раздаваться!
Eсли вы уже удалили старые серии, то предотвратить повторную закачку старых серий можно, отжав галочку в соответсвующих местах при запуске нового торрента. По возможности, желательно не удалять старые серии как можно дольше, чтобы релизёр не столько продолжал раздавать старые серии, а смог сконцентрироваться на новых.
pb.wtf



Скачать 911 служба спасения через торрент https://a.radikal.ru/a08/1810/00/cbdc2ad7d987.jpg Скачать фильм 911 служба спасения через торрент бесплантно в хорошем качестве Описание: Сериал расскажет о работе полицейских, «Скорой помощи» и пожарной службы. Все они выполняют свой долг, часто рискуя жизнью и ... 7.8 10 4
Info! Серебряная раздача, засчитывается только 50% скачанного.
Торрент: Зарегистрирован [2019-06-09 03:21] · скачан: 10 раз
Статус: √ проверено
Размер: 47.45 GB
Как cкачать? Как скачать 911 служба спасения через торрент | qTorrent

% Раздел Тема Автор DL S | L
Зарубежные сериалы [ 11.01 GB ] 911 служба спасения / 9-1-1 / Сезон: 2 / Серии: 1-18 из 18 [2018 WEB-DLRip] MVO [LostFilm] bober100 Скачать
1 | 0
Зарубежные сериалы [ 17.39 GB ] 911 служба спасения / 9-1-1 / Сезон: 2 / Серии: 1-18 из 18 [2018 WEB-DL 720p] MVO [Jaskier] bober100 Скачать
1 | 0
Зарубежные сериалы [ 6.98 GB ] 911 служба спасения / 9-1-1 / Сезон: 2 / Серии: 1-13 из 16 [2018 WEB-DLRip] MVO [NewStudio] bober100 Скачать
1 | 0
Зарубежные сериалы [ 32.99 GB ] 911 служба спасения / 9-1-1 / Сезон: 2 / Серии: 1-12 из 16 [2018 WEB-DL 1080p] MVO [Jaskier] bober100 Скачать
1 | 0
Зарубежные сериалы [ 9.79 GB ] 911 служба спасения / 9-1-1 / Сезон: 2 / Серии: 1-18 из 18 [2018 WEB-DLRip] MVO [Jaskier] bober100 Скачать
1 | 0

28-11-2019 20:33  

Отключить всю рекламу на сайте

    Дорогой пользователь! Огромная просьба, поблагодарите релизера, оцените раздачу и оставьте свои комментарий, если Вы скачали 911 служба спасения через торрент бесплатно! Внесите свою лепту в развитие PiratBit!
    Комментировать посты могут только пользователи прошедшие не сложную регистрацию
    Показать сообщения:    

    911 служба спасения через торрент
    Скачать бесплатно 911 служба спасения
    911 служба спасения скачать торрент
    911 служба спасения смотреть онлайн
    Cкачать фильм 911 служба спасения бесплатно
    911 служба спасения скачать торрент в хорошем качестве
    911 служба спасения смотреть онлайн бесплатно в хорошем качестве


    Вы не можете начинать темы
    Вы не можете отвечать на сообщения
    Вы не можете редактировать свои сообщения
    Вы не можете удалять свои сообщения
    Вы не можете голосовать в опросах
    Вы не можете прикреплять файлы к сообщениям
    Вы можете скачивать файлы