Ссылка на приватное зеркало нашего сайта всего за 1$. Внимание количество ограничено!!!

2 сезон

iTunes

1 сезон

1

2 сезон

2 сезон

iTunes

1 сезон

RePack

30

Новинка

ВАЖНО

ИГРА 18+

pack

RePack

MK11
pack

Забери бонус

RePack

jed

!!Акция!!

Alien_Rage

RePack

fifa19

RePack

Assassins Creed: Odyssey

RePack

NEED FOR SPEED™ PAYBACK

4 сезон

9 сезон

Бесстыжие 9 сезон

Все сериалы

все сериалы на PB.wtf

RePack

FAR CRY 5
  

Голодные Z / Les affames / Ravenous (Робин Обер) [2017, ужасы, драма, BD Remux 1080p] DUB (rus, ukr) [iTunes] pb.wtf

Голодные Z через торрент pb.wtf

Размер: 18.01 GB | Добавлен: 1 год 7 мес. назад | Торрент скачан:24 раза
Скачать  

14-04-2019 17:21 Голодные Z Скачать торрент  

Голодные Z / Les affames / Ravenous
Год выпуска: 2017
Страна: Канада
Жанр: ужасы, драма
Продолжительность: 01:43:00
Перевод: Дублированный | iTunes
Субтитры: отсутствуют

Режиссер: Робин Обер

rating

В ролях:

Марк-Андре Гронден, Монья Шокри, Шарлотта Сен-Мартен, Мишлен Ланкто, Мари-Джинетт Гуай, Бриджитт Пупар, Эдуар Трамбле-Гренье, Люк Пру, Дидье Люсьен, Робер Бруйетт

Описание:

В небольшой деревушке неподалеку от Квебека все изменилось. Местные жители уже не те, что раньше: их тела разлагаются, а сами они стали интересоваться исключительно свежей плотью.

Качество: BD Remux 1080p
Формат: MKV

Видео: MPEG-4 AVC, 1920x1080, 21.9 Mbit/s, 24 fps
Аудио#1: 48 kHz, AC3, 5.1, 384 Kbps | iTunes | RUS |
Аудио#2: 48 kHz, AC3, 5.1, 384 Kbps | iTunes | UKR |
Аудио#3: 48 kHz, DTS-HD MA, 5.1, 2313 Kbps | Оригинал | FRE |
скриншот  скриншот  скриншот  скриншот  скриншот  

General
Unique ID : 149381756386608999672523971775371753386 (0x7061E13910FA62E842C8F678103D37AA)
Complete name : D:Video111Les.Affamés.2017.BDREMUX.1080p.seleZen.mkv
Format : Matroska
Format version : Version 4
File size : 18.0 GiB
Duration : 1 h 43 min
Overall bit rate mode : Variable
Overall bit rate : 25.0 Mb/s
Movie name : Les Affamés 2017 from селезень
Encoded date : UTC 2019-04-14 17:08:11
Writing application : mkvmerge v32.0.0 ('Astral Progressions') 64-bit
Writing library : libebml v1.3.7 + libmatroska v1.5.0

Video
ID : 1
Format : AVC
Format/Info : Advanced Video Codec
Format profile : High@L4.1
Format settings : CABAC / 4 Ref Frames
Format settings, CABAC : Yes
Format settings, ReFrames : 4 frames
Format settings, GOP : M=3, N=24
Codec ID : V_MPEG4/ISO/AVC
Duration : 1 h 43 min
Bit rate mode : Variable
Bit rate : 21.9 Mb/s
Maximum bit rate : 35.0 Mb/s
Width : 1 920 pixels
Height : 1 080 pixels
Display aspect ratio : 16:9
Frame rate mode : Constant
Frame rate : 24.000 FPS
Standard : NTSC
Color space : YUV
Chroma subsampling : 4:2:0
Bit depth : 8 bits
Scan type : Progressive
Bits/(Pixel*Frame) : 0.441
Stream size : 15.8 GiB (88%)
Language : French
Default : Yes
Forced : No
Color range : Limited
Color primaries : BT.709
Transfer characteristics : BT.709
Matrix coefficients : BT.709

Audio #1
ID : 2
Format : AC-3
Format/Info : Audio Coding 3
Commercial name : Dolby Digital
Codec ID : A_AC3
Duration : 1 h 42 min
Bit rate mode : Constant
Bit rate : 384 kb/s
Channel(s) : 6 channels
Channel layout : L R C LFE Ls Rs
Sampling rate : 48.0 kHz
Frame rate : 31.250 FPS (1536 SPF)
Bit depth : 16 bits
Compression mode : Lossy
Stream size : 283 MiB (2%)
Title : iTunes
Language : Russian
Service kind : Complete Main
Default : Yes
Forced : Yes

Audio #2
ID : 3
Format : AC-3
Format/Info : Audio Coding 3
Commercial name : Dolby Digital
Codec ID : A_AC3
Duration : 1 h 42 min
Bit rate mode : Constant
Bit rate : 384 kb/s
Channel(s) : 6 channels
Channel layout : L R C LFE Ls Rs
Sampling rate : 48.0 kHz
Frame rate : 31.250 FPS (1536 SPF)
Bit depth : 16 bits
Compression mode : Lossy
Stream size : 283 MiB (2%)
Title : iTunes
Language : Ukrainian
Service kind : Complete Main
Default : No
Forced : No

Audio #3
ID : 4
Format : DTS XLL
Format/Info : Digital Theater Systems
Commercial name : DTS-HD Master Audio
Codec ID : A_DTS
Duration : 1 h 43 min
Bit rate mode : Variable
Bit rate : 2 313 kb/s
Channel(s) : 6 channels
Channel layout : C L R Ls Rs LFE
Sampling rate : 48.0 kHz
Frame rate : 93.750 FPS (512 SPF)
Bit depth : 16 bits
Compression mode : Lossless
Stream size : 1.66 GiB (9%)
Title : Original
Language : French
Default : No
Forced : No

Menu
00:00:00.000 : en:Chapter 1
00:05:44.166 : en:Chapter 2
00:12:07.750 : en:Chapter 3
00:18:28.250 : en:Chapter 4
00:25:54.875 : en:Chapter 5
00:32:11.833 : en:Chapter 6
00:38:50.291 : en:Chapter 7
00:45:21.000 : en:Chapter 8
00:51:00.500 : en:Chapter 9
00:57:40.250 : en:Chapter 10
01:04:43.791 : en:Chapter 11
01:10:38.000 : en:Chapter 12
01:17:53.416 : en:Chapter 13
01:23:36.541 : en:Chapter 14
01:32:00.791 : en:Chapter 15
01:37:08.875 : en:Chapter 16

pb.wtf



Скачать Голодные Z через торрент http://img16.lostpic.net/2019/04/14/d10905b545b9caa094d637c2cf3f5be7.jpg Скачать фильм Голодные Z через торрент бесплантно в хорошем качестве Описание: В небольшой деревушке неподалеку от Квебека все изменилось. Местные жители уже не те, что раньше: их тела разлагаются, а сами они ... 10 10 3
Info! Золотая раздача, скачанное не засчитывается.
Торрент: Зарегистрирован [2019-04-14 17:21] · скачан: 24 раз
Статус: √ проверено
Размер: 18.01 GB
Как cкачать? Как скачать Голодные Z через торрент | qTorrent

% Раздел Тема Автор DL S | L
Фильмы 2017 [DVDrip, WEB-DLRip, HDrip] (DUB, MVO) [ 1.42 GB ] Голодные Z / Les affames / Ravenous [2017 BDRip] - Twi7ter Скачать
2 | 0
Фильмы 2017 [DVDrip, WEB-DLRip, HDrip] (DUB, MVO) [ 1.54 GB ] Голодные Z / Les affames / Ravenous [2017 BDRip-AVC] bober100 Скачать
1 | 0
Фильмы [HD 720p, 1080p] (Хороший звук DUB, MVO) [ 8.39 GB ] Голодные Z / Les affames / Ravenous [2017 BDRip 1080p] DUB bober100 Скачать
1 | 0
Фильмы [HD 720p, 1080p] (Хороший звук DUB, MVO) [ 2.86 GB ] Голодные Z / Les affames / Ravenous [2017 BDRip 720p] DUB bober100 Скачать
1 | 0
Фильмы 2017 [DVDrip, WEB-DLRip, HDrip] (DUB, MVO) [ 1.42 GB ] Голодные Z / Les affames / Ravenous [2017 BDRip] bober100 Скачать
1 | 0

28-11-2019 20:33  

Отключить всю рекламу на сайте

    Дорогой пользователь! Огромная просьба, поблагодарите релизера, оцените раздачу и оставьте свои комментарий, если Вы скачали Голодные Z через торрент бесплатно! Внесите свою лепту в развитие PiratBit!
    Комментировать посты могут только пользователи прошедшие не сложную регистрацию
    Показать сообщения:    

    Голодные Z через торрент
    Скачать бесплатно Голодные Z
    Голодные Z скачать торрент
    Голодные Z смотреть онлайн
    Cкачать фильм Голодные Z бесплатно
    Голодные Z скачать торрент в хорошем качестве
    Голодные Z смотреть онлайн бесплатно в хорошем качестве


    Вы не можете начинать темы
    Вы не можете отвечать на сообщения
    Вы не можете редактировать свои сообщения
    Вы не можете удалять свои сообщения
    Вы не можете голосовать в опросах
    Вы не можете прикреплять файлы к сообщениям
    Вы можете скачивать файлы