Ссылка на приватное зеркало нашего сайта всего за 1$. Внимание количество ограничено!!!

2 сезон

iTunes

1 сезон

1

2 сезон

2 сезон

iTunes

1 сезон

RePack

30

Новинка

ВАЖНО

ИГРА 18+

pack

RePack

MK11
pack

Забери бонус

RePack

jed

!!Акция!!

Alien_Rage

RePack

fifa19

RePack

Assassins Creed: Odyssey

RePack

NEED FOR SPEED™ PAYBACK

4 сезон

9 сезон

Бесстыжие 9 сезон

Все сериалы

все сериалы на PB.wtf

RePack

FAR CRY 5
  

Клаустрофобы / Escape Room (Адам Робител) [2019, триллер, BD Remux 1080p] DUB [iTunes] pb.wtf

Клаустрофобы через торрент pb.wtf

Размер: 18.45 GB | Добавлен: 1 год 7 мес. назад | Торрент скачан:187 раз
Скачать  

14-04-2019 19:20 Клаустрофобы Скачать торрент  

Клаустрофобы / Escape Room Год выпуска: 2019
Страна: ЮАР, США
Жанр: триллер
Продолжительность: 01:39:37
Перевод: Дублированный | iTunes
Субтитры: Русские (Forced, full), английские

Режиссер: Адам Робител

rating

В ролях:

Тейлор Расселл, Логан Миллер, Джей Эллис, Тайлер Лабин, Дебора Энн Уолл, Ник Додани, Йорик ван Вагенинген, Корнелиус Джини мл., Барт Фаш

Описание:

Получив от таинственной организации приглашение сыграть в квест, победитель которого получит солидную сумму, шестеро незнакомых между собой людей решают попытать удачу. Но совсем скоро им становится понятно, что их выбрали для игры не случайно, задания не такие безобидные, и им грозит вполне реальная опасность, а ставка в игре - их собственные жизни.

Качество: BD Remux 1080p
Формат: MKV

Видео: MPEG-4 AVC, 1920x1080, 23.9 Mbit/s, 23.976 fps
Аудио#1: 48 kHz, AC3, 5.1, 384 Kbps | iTunes | RUS |
Аудио#2: 48 kHz, DTS-HD MA, 5.1, 2247 Kbps | Оригинал | ENG |
скриншот  скриншот  скриншот  скриншот  скриншот  

General
Unique ID : 27644186379109397473175712391590991744 (0x14CC139E4209C689617712AB464E5780)
Complete name : D:Video111Escape.Room.2019.BDREMUX.1080p.seleZen.mkv
Format : Matroska
Format version : Version 4
File size : 18.5 GiB
Duration : 1 h 39 min
Overall bit rate mode : Variable
Overall bit rate : 26.5 Mb/s
Movie name : Escape Room 2019 from селезень
Encoded date : UTC 2019-04-14 17:36:44
Writing application : mkvmerge v32.0.0 ('Astral Progressions') 64-bit
Writing library : libebml v1.3.7 + libmatroska v1.5.0

Video
ID : 1
Format : AVC
Format/Info : Advanced Video Codec
Format profile : High@L4.1
Format settings : CABAC / 2 Ref Frames
Format settings, CABAC : Yes
Format settings, ReFrames : 2 frames
Format settings, GOP : M=1, N=10
Codec ID : V_MPEG4/ISO/AVC
Duration : 1 h 39 min
Bit rate mode : Variable
Bit rate : 23.9 Mb/s
Width : 1 920 pixels
Height : 1 080 pixels
Display aspect ratio : 16:9
Frame rate mode : Constant
Frame rate : 23.976 (24000/1001) FPS
Color space : YUV
Chroma subsampling : 4:2:0
Bit depth : 8 bits
Scan type : Progressive
Bits/(Pixel*Frame) : 0.480
Stream size : 16.6 GiB (90%)
Language : English
Default : Yes
Forced : No

Audio #1
ID : 2
Format : AC-3
Format/Info : Audio Coding 3
Commercial name : Dolby Digital
Codec ID : A_AC3
Duration : 1 h 39 min
Bit rate mode : Constant
Bit rate : 384 kb/s
Channel(s) : 6 channels
Channel layout : L R C LFE Ls Rs
Sampling rate : 48.0 kHz
Frame rate : 31.250 FPS (1536 SPF)
Bit depth : 16 bits
Compression mode : Lossy
Stream size : 274 MiB (1%)
Title : iTunes
Language : Russian
Service kind : Complete Main
Default : Yes
Forced : Yes

Audio #2
ID : 3
Format : DTS XLL
Format/Info : Digital Theater Systems
Commercial name : DTS-HD Master Audio
Codec ID : A_DTS
Duration : 1 h 39 min
Bit rate mode : Variable
Bit rate : 2 247 kb/s
Channel(s) : 6 channels
Channel layout : C L R Ls Rs LFE
Sampling rate : 48.0 kHz
Frame rate : 93.750 FPS (512 SPF)
Bit depth : 16 bits
Compression mode : Lossless
Stream size : 1.56 GiB (8%)
Title : Original
Language : English
Default : No
Forced : No

Text #1
ID : 4
Format : UTF-8
Codec ID : S_TEXT/UTF8
Codec ID/Info : UTF-8 Plain Text
Duration : 1 h 34 min
Bit rate : 0 b/s
Count of elements : 5
Stream size : 178 Bytes (0%)
Title : Forced
Language : Russian
Default : Yes
Forced : Yes

Text #2
ID : 5
Format : UTF-8
Codec ID : S_TEXT/UTF8
Codec ID/Info : UTF-8 Plain Text
Duration : 1 h 38 min
Bit rate : 93 b/s
Count of elements : 1356
Stream size : 67.7 KiB (0%)
Title : Full
Language : Russian
Default : No
Forced : No

Text #3
ID : 6
Format : UTF-8
Codec ID : S_TEXT/UTF8
Codec ID/Info : UTF-8 Plain Text
Duration : 1 h 33 min
Bit rate : 70 b/s
Count of elements : 1553
Stream size : 48.6 KiB (0%)
Title : Full
Language : English
Default : No
Forced : No

Text #4
ID : 7
Format : UTF-8
Codec ID : S_TEXT/UTF8
Codec ID/Info : UTF-8 Plain Text
Duration : 1 h 37 min
Bit rate : 72 b/s
Count of elements : 1764
Stream size : 51.7 KiB (0%)
Title : SDH
Language : English
Default : No
Forced : No

Menu
00:00:00.000 : en:Chapter 1
00:04:36.026 : en:Chapter 2
00:09:25.648 : en:Chapter 3
00:14:08.765 : en:Chapter 4
00:19:46.102 : en:Chapter 5
00:25:55.220 : en:Chapter 6
00:33:08.945 : en:Chapter 7
00:37:27.162 : en:Chapter 8
00:43:05.082 : en:Chapter 9
00:50:06.170 : en:Chapter 10
00:53:58.569 : en:Chapter 11
01:03:15.291 : en:Chapter 12
01:09:07.894 : en:Chapter 13
01:16:14.695 : en:Chapter 14
01:22:48.755 : en:Chapter 15
01:30:27.881 : en:Chapter 16

pb.wtf



Скачать Клаустрофобы через торрент https://d.radikal.ru/d16/1904/13/4ccba1672eb2.png Скачать фильм Клаустрофобы через торрент бесплантно в хорошем качестве Описание: Получив от таинственной организации приглашение сыграть в квест, победитель которого получит солидную сумму, шестеро незнакомых ... 10 10 5
Торрент: Зарегистрирован [2019-04-14 19:20] · скачан: 187 раз
Статус: √ проверено
Размер: 18.45 GB
Как cкачать? Как скачать Клаустрофобы через торрент | qTorrent

% Раздел Тема Автор DL S | L
Фильмы (HD 720p, 1080p) (48-60 fps) [ 12.27 GB ] Клаустрофобы / Escape Room [2019 BDRip 1080p 60 fps] sheker187 Скачать
1 | 0
Фильмы 2019-2020 [DVDrip, WEB-DLRip, HDrip] (DUB, MVO) [ 1.46 GB ] Клаустрофобы / Escape Room [2019 BDRip] - [] Twi7ter Скачать
28 | 1
Фильмы 2019-2020 [DVDrip, WEB-DLRip, HDrip] (DUB, MVO) [ 710 MB ] Клаустрофобы / Escape Room [2019 HDRip ""] coc900 Скачать
1 | 0
Фильмы 2019-2020 [DVDrip, WEB-DLRip, HDrip] (DUB, MVO) [ 1.42 GB ] Клаустрофобы / Escape Room [2019 BDRip] bober100 Скачать
24 | 0
Фильмы [HD 720p, 1080p] (Хороший звук DUB, MVO) [ 4.06 GB ] Клаустрофобы / Escape Room [2019 BDRip 720p] bober100 Скачать
1 | 0
Фильмы (WEB-DL 720p, 1080p) [ 4.68 GB ] Клаустрофобы / Escape Room [2019 WEB-DL 1080p] bober100 Скачать
1 | 0
Фильмы 2019-2020 [DVDrip, WEB-DLRip, HDrip] (DUB, MVO) [ 2.09 GB ] Клаустрофобы / Escape Room [2019 BDRip-AVC] DUB [] - ExKinoRay Enigma2010 Скачать
38 | 0

28-11-2019 20:33  

Отключить всю рекламу на сайте

    Дорогой пользователь! Огромная просьба, поблагодарите релизера, оцените раздачу и оставьте свои комментарий, если Вы скачали Клаустрофобы через торрент бесплатно! Внесите свою лепту в развитие PiratBit!
    Комментировать посты могут только пользователи прошедшие не сложную регистрацию
    Показать сообщения:    

    Клаустрофобы через торрент
    Скачать бесплатно Клаустрофобы
    Клаустрофобы скачать торрент
    Клаустрофобы смотреть онлайн
    Cкачать фильм Клаустрофобы бесплатно
    Клаустрофобы скачать торрент в хорошем качестве
    Клаустрофобы смотреть онлайн бесплатно в хорошем качестве


    Вы не можете начинать темы
    Вы не можете отвечать на сообщения
    Вы не можете редактировать свои сообщения
    Вы не можете удалять свои сообщения
    Вы не можете голосовать в опросах
    Вы не можете прикреплять файлы к сообщениям
    Вы можете скачивать файлы