Мега распродажа FORZA HORIZON 4 ULTIMATE+ВСЕ DLC+ОНЛАЙН всего за 499р. 349 руб. (супер цена). Внимание количество ограничено!!!

iTunes

1+1

iTunes

мы

iTunes

1

1 сезон

Чернобыль

1 сезон

Ральф против интернета

Лицензия

ПШазам

8 сезон

Игра престолов

Лицензия

30
pack

ВАЖНО

!!Акция!!

Alien_RageХит недели

RePack

Resident Evil 21

ИГРА 18+

pack

RePack

Metro:Exodus

!!Акция!!

Alien_Rage

RePack

fifa19

RePack

Assassins Creed: Odyssey

RePack

NEED FOR SPEED™ PAYBACK

3 сезон

9 сезон

Бесстыжие 9 сезон

Все сериалы

все сериалы на PB.wtf

RePack

FAR CRY 5
Ребята, катастрофически не хватает 2730р. для оплаты серверов за ИЮНЬ (всвязи с блокировками трафик упал в 3 раза), 1-2р., выручайте.
  

Море соблазна / Serenity (Стивен Найт) [2019, триллер, драма, BD Remux 1080p] DUB (rus, ukr) [iTunes] +MVO [HDRezka Studio] pb.wtf

Море соблазна через торрент pb.wtf

Раздают: 1 [ 0 KB/s ]
Размер: 21.8 GB | Добавлен: 2 мес. 26 д. назад | Торрент скачан:37 раз
Скачать  

14-04-2019 21:08 Море соблазна Скачать торрент  

Море соблазна / Serenity Год выпуска: 2019
Страна: США
Жанр: триллер, драма
Продолжительность: 01:46:01
Перевод:

#1: Дублированный | iTunes
#2: Профессиональный многоголосый | HDRezka Studio

Субтитры: Русские (Full), английские

Режиссер: Стивен Найт

rating

В ролях:

Мэттью МакКонахи (Baker Dill), Энн Хэтэуэй (Karen Zariakas), Дайан Лэйн (Constance), Джейсон Кларк (Frank Zariakas), Джимон Хонсу (Duke), Джереми Стронг (Reid Miller), Шарлотта Батлер (Lois), Дэвид Батлер (Jack), Рафаэль Сайех (Patrick), Майкл Ричард (Ron), Роберт Хоббс (Ape), Кеннет Фок (Lionel)
Описание:

Палящее солнце Карибских островов, верный корабль и жизнь, полная риска - его стихия. Единственная женщина, которую он любил, вышла замуж за миллиардера и живет на вилле в Майами. Неожиданно она вновь появляется в его жизни и умоляет о защите. С этой минуты знакомые воды превратятся в море соблазна...

Качество: BD Remux 1080p
Формат: MKV

Видео: MPEG-4 AVC, 1920x1080, 25 Mbit/s, 23.976 fps
Аудио#1: 48 kHz, AC3, 5.1, 384 Kbps | iTunes | RUS |
Аудио#2: 48 kHz, AC3, 2.0, 192 Kbps | HDRezka Studio | RUS |
Аудио#3: 48 kHz, AC3, 5.1, 384 Kbps | iTunes | UKR |
Аудио#4: 48 kHz, DTS-HD MA, 5.1, 3445 Kbps | Оригинал | ENG |
скриншот  скриншот  скриншот  скриншот  скриншот  

General
Unique ID : 19391086198842933005866192113487889054 (0xE96965CFE1B7555141734A06BC4C29E)
Complete name : D:Video111Serenity.2019.BDREMUX.1080p.seleZen.mkv
Format : Matroska
Format version : Version 4
File size : 21.8 GiB
Duration : 1 h 46 min
Overall bit rate mode : Variable
Overall bit rate : 29.4 Mb/s
Movie name : Serenity 2019 from селезень
Encoded date : UTC 2019-04-22 18:53:39
Writing application : mkvmerge v32.0.0 ('Astral Progressions') 64-bit
Writing library : libebml v1.3.7 + libmatroska v1.5.0

Video
ID : 1
Format : AVC
Format/Info : Advanced Video Codec
Format profile : High@L4.1
Format settings : CABAC / 4 Ref Frames
Format settings, CABAC : Yes
Format settings, ReFrames : 4 frames
Codec ID : V_MPEG4/ISO/AVC
Duration : 1 h 46 min
Bit rate mode : Variable
Bit rate : 25.0 Mb/s
Maximum bit rate : 30.0 Mb/s
Width : 1 920 pixels
Height : 1 080 pixels
Display aspect ratio : 16:9
Frame rate mode : Constant
Frame rate : 23.976 (24000/1001) FPS
Standard : NTSC
Color space : YUV
Chroma subsampling : 4:2:0
Bit depth : 8 bits
Scan type : Progressive
Bits/(Pixel*Frame) : 0.504
Stream size : 18.5 GiB (85%)
Language : English
Default : Yes
Forced : No
Color range : Limited
Color primaries : BT.709
Transfer characteristics : BT.709
Matrix coefficients : BT.709

Audio #1
ID : 2
Format : AC-3
Format/Info : Audio Coding 3
Commercial name : Dolby Digital
Codec ID : A_AC3
Duration : 1 h 45 min
Bit rate mode : Constant
Bit rate : 384 kb/s
Channel(s) : 6 channels
Channel layout : L R C LFE Ls Rs
Sampling rate : 48.0 kHz
Frame rate : 31.250 FPS (1536 SPF)
Bit depth : 16 bits
Compression mode : Lossy
Stream size : 291 MiB (1%)
Title : iTunes
Language : Russian
Service kind : Complete Main
Default : Yes
Forced : Yes

Audio #2
ID : 3
Format : AC-3
Format/Info : Audio Coding 3
Commercial name : Dolby Digital
Codec ID : A_AC3
Duration : 1 h 46 min
Bit rate mode : Constant
Bit rate : 192 kb/s
Channel(s) : 2 channels
Channel layout : L R
Sampling rate : 48.0 kHz
Frame rate : 31.250 FPS (1536 SPF)
Bit depth : 16 bits
Compression mode : Lossy
Stream size : 146 MiB (1%)
Title : MVO [HDRezka Studio]
Language : Russian
Service kind : Complete Main
Default : No
Forced : No

Audio #3
ID : 4
Format : AC-3
Format/Info : Audio Coding 3
Commercial name : Dolby Digital
Codec ID : A_AC3
Duration : 1 h 45 min
Bit rate mode : Constant
Bit rate : 384 kb/s
Channel(s) : 6 channels
Channel layout : L R C LFE Ls Rs
Sampling rate : 48.0 kHz
Frame rate : 31.250 FPS (1536 SPF)
Bit depth : 16 bits
Compression mode : Lossy
Stream size : 291 MiB (1%)
Title : iTunes
Language : Ukrainian
Service kind : Complete Main
Default : No
Forced : No

Audio #4
ID : 5
Format : DTS XLL
Format/Info : Digital Theater Systems
Commercial name : DTS-HD Master Audio
Codec ID : A_DTS
Duration : 1 h 46 min
Bit rate mode : Variable
Bit rate : 3 445 kb/s
Channel(s) : 6 channels
Channel layout : C L R Ls Rs LFE
Sampling rate : 48.0 kHz
Frame rate : 93.750 FPS (512 SPF)
Bit depth : 24 bits
Compression mode : Lossless
Stream size : 2.55 GiB (12%)
Title : Original
Language : English
Default : No
Forced : No

Text #1
ID : 6
Format : UTF-8
Codec ID : S_TEXT/UTF8
Codec ID/Info : UTF-8 Plain Text
Duration : 1 h 38 min
Bit rate : 87 b/s
Count of elements : 1049
Stream size : 63.5 KiB (0%)
Title : Full
Language : Russian
Default : No
Forced : No

Text #2
ID : 7
Format : UTF-8
Codec ID : S_TEXT/UTF8
Codec ID/Info : UTF-8 Plain Text
Duration : 1 h 40 min
Bit rate : 56 b/s
Count of elements : 1459
Stream size : 41.6 KiB (0%)
Title : Full
Language : English
Default : No
Forced : No

Text #3
ID : 8
Format : UTF-8
Codec ID : S_TEXT/UTF8
Codec ID/Info : UTF-8 Plain Text
Duration : 1 h 40 min
Bit rate : 61 b/s
Count of elements : 1688
Stream size : 45.4 KiB (0%)
Title : SDH
Language : English
Default : No
Forced : No

Menu
00:00:00.000 : en:Chapter 1
00:01:55.198 : en:Chapter 2
00:09:35.784 : en:Chapter 3
00:19:25.039 : en:Chapter 4
00:34:03.750 : en:Chapter 5
00:46:53.853 : en:Chapter 6
00:56:48.947 : en:Chapter 7
01:04:42.295 : en:Chapter 8
01:13:32.366 : en:Chapter 9
01:22:06.755 : en:Chapter 10
01:34:41.676 : en:Chapter 11
01:40:29.065 : en:Chapter 12

pb.wtf



Скачать Море соблазна через торрент https://i109.fastpic.ru/big/2019/0328/06/8084fbc7bdc25314f21571cc64256606.jpg Скачать фильм Море соблазна через торрент бесплантно в хорошем качестве Описание: Палящее солнце Карибских островов, верный корабль и жизнь, полная риска - его стихия. Единственная женщина, которую он любил, ... 10 10 3
Info! Золотая раздача, скачанное не засчитывается.
Торрент: Зарегистрирован [2019-04-22 19:04] · скачан: 37 раз
Статус: √ проверено
Размер: 21.8 GB
Как cкачать? Как скачать Море соблазна через торрент | qTorrent

% Раздел Тема Автор DL S | L
Фильмы 2019 [DVDrip, WEB-DLRip, HDrip] (DUB, MVO) [ 1.41 GB ] Море соблазна / Serenity [2019 BDRip] - Twi7ter Скачать
13 | 0
Фильмы 2019 [DVDrip, WEB-DLRip, HDrip] (DUB, MVO) [ 1.4 GB ] Море соблазна / Serenity [2019 BDRip-AVC] Dub - ExKinoRay Enigma2010 Скачать
36 | 1
Фильмы 2019 [DVDrip, WEB-DLRip, HDrip] (DUB, MVO) [ 1.41 GB ] Море соблазна / Serenity [2019 BDRip] bober100 Скачать
4 | 0
Фильмы [HD 720p, 1080p] (Хороший звук DUB, MVO) [ 4.2 GB ] Море соблазна / Serenity [2019 BDRip 720p] DUB +MVO [HDRezka Studio] bober100 Скачать
1 | 0
Фильмы [HD 720p, 1080p] (Хороший звук DUB, MVO) [ 7.44 GB ] Море соблазна / Serenity [2019 BDRip 1080p] DUB +MVO [HDRezka Studio] bober100 Скачать
1 | 0
T Фильмы 2019 [DVDrip, WEB-DLRip, HDrip] (DUB, MVO) [ 1.45 GB ] Море соблазна / Serenity [2019 BDRip-AVC] MVO [HDRezka Studio] - ExKinoRay Enigma2010 Скачать
9 | 0
T Фильмы 2019 [DVDrip, WEB-DLRip, HDrip] (DUB, MVO) [ 1.8 GB ] Море соблазна / Serenity [2019 BDRip-AVC] MVO [HDRezka Studio] bober100 Скачать
4 | 0


>> Регистрируемся здесь <<






Отзывы и комментарии о схеме читаем и пишем здесь: ---> Отзывы и комментарии о схеме

Новые благодарочки в телеграм довольных пользователей:
скриншот   скриншот   скриншот   скриншот   скриншот
    Дорогой пользователь! Огромная просьба, поблагодарите релизера, оцените раздачу и оставьте свои комментарий, если Вы скачали Море соблазна через торрент бесплатно! Внесите свою лепту в развитие PiratBit!
    Комментировать посты могут только пользователи прошедшие не сложную регистрацию
    Показать сообщения:    

    Море соблазна через торрент
    Скачать бесплатно Море соблазна
    Море соблазна скачать торрент
    Море соблазна смотреть онлайн
    Cкачать фильм Море соблазна бесплатно
    Море соблазна скачать торрент в хорошем качестве
    Море соблазна смотреть онлайн бесплатно в хорошем качестве


    Вы не можете начинать темы
    Вы не можете отвечать на сообщения
    Вы не можете редактировать свои сообщения
    Вы не можете удалять свои сообщения
    Вы не можете голосовать в опросах
    Вы не можете прикреплять файлы к сообщениям
    Вы можете скачивать файлы