Наша группа ВК в очередной раз забанена мы уходим в Телеграм, присоединяйтесь!!!

Лицензия

30

iTunes

Как приручить дракона 3

iTunes

1

1 сезон

Чернобыль

iTunes

Снегоуборщик

iTunes

Закатать в асфальт

8 сезон

Игра престолов

iTunes

Ральф против интернета Хит недели

ИГРА 18+

pack

ВАЖНО

!!Акция!!

Alien_RageХит недели

RePack

Resident Evil 21
pack

RePack

Metro:Exodus

!!Акция!!

Alien_Rage

RePack

fifa19

RePack

Assassins Creed: Odyssey

RePack

NEED FOR SPEED™ PAYBACK

3 сезон

9 сезон

Бесстыжие 9 сезон

Все сериалы

все сериалы на PB.wtf

RePack

FAR CRY 5
Ребята, катастрофически не хватает 2730р. для оплаты серверов за АПРЕЛЬ (всвязи с блокировками трафик упал в 3 раза), 1-2р., выручайте.
  

Ростов / Серии: 1-16 из 16 (Павел Дроздов) [2019 г., Детектив, история, WEBRip] pb.wtf

Ростов через торрент pb.wtf

Раздают: 7 [ 30 KB/s ]
Размер: 8.71 GB | Добавлен: 1 мес. 1 д. назад | Торрент скачан:188 раз
Скачать  

16-04-2019 03:10 Ростов Скачать торрент  

Ростов
Год выпуска: 2019
Страна: Россия
Жанр: Детектив, история
Продолжительность: 16 х ~ 00:50:00
Субтитры: Отсутствуют

Режиссер: Павел Дроздов



В ролях: Алексей Барабаш, Артур Смольянинов, Александр Головин, Иван Охлобыстин, Софья Ардова, Константин Адаев, Юрий Круглов, Феликс Кроль, Юрий Ваксман, Никита Тарасов, Янина Мелехова, Андрей Иванов (IV), Александра Богданова, Дмитрий Лавров (III), Кристина Борейко

Описание: В центре сюжета - Иван Козырев, «Козырь». В прошлом он – вор-рецидивист, промышлявший в Ростове. Но времена изменились – теперь Козырь принял новую Влacть и вернулся в город, чтобы «навести порядок». Его назначают начальником вновь сформированного отдела уголовного розыска. Руководство считает, что только Козырев может искоренить преступность в городе, ведь он изнутри знает воровской мир. Собрав крепких рабочих в свою команду, Козырь начинает борьбу с преступными группировками. Стихийно собранному отделу приходится учиться сыскному делу буквально «на ходу». Они встретятся лицом к лицу с самыми лютыми бандами, чтобы отстоять мир и спокойствие в городе Ростов.

Качество: WEBRip
Формат: AVI
Видео кодек: XviD
Аудио кодек: AC3
Видео: XviD build 73, 720x304 (2.37:1), 25.000 fps, ~ 1350 Kbps (~ 0.245 bit/pixel)
Аудио#1: 48.0 kHz, AC3, 2/0 ch, 192 kbps
скриншот   скриншот   скриншот   скриншот  

General
Complete name : D:\Razdachi\Rostov.2019.WEBRip.GeneralFilm\Rostov.e01.avi
Format : AVI
Format/Info : Audio Video Interleave
File size : 557 MiB
Duration : 50 min 55 s
Overall bit rate : 1 529 kb/s
Writing application : VirtualDubMod 1.5.10.3 | www.virtualdub-fr.org || (build 2550/release)
Writing library : VirtualDubMod build 2550/release
Video
ID : 0
Format : MPEG-4 Visual
Format profile : Advanced Simple@L5
Format settings : BVOP1 / Custom Matrix
Format settings, BVOP : 1
Format settings, QPel : No
Format settings, GMC : No warppoints
Format settings, Matrix : Custom
Codec ID : XVID
Codec ID/Hint : XviD
Duration : 50 min 55 s
Bit rate : 1 327 kb/s
Width : 720 pixels
Height : 304 pixels
Display aspect ratio : 2.35:1
Frame rate : 25.000 FPS
Color space : YUV
Chroma subsampling : 4:2:0
Bit depth : 8 bits
Scan type : Progressive
Compression mode : Lossy
Bits/(Pixel*Frame) : 0.243
Stream size : 483 MiB (87%)
Writing library : XviD 73
Audio
ID : 1
Format : AC-3
Format/Info : Audio Coding 3
Commercial name : Dolby Digital
Codec ID : 2000
Duration : 50 min 55 s
Bit rate mode : Constant
Bit rate : 192 kb/s
Channel(s) : 2 channels
Channel layout : L R
Sampling rate : 48.0 kHz
Frame rate : 31.250 FPS (1536 SPF)
Bit depth : 16 bits
Compression mode : Lossy
Delay relative to video : 8 ms
Stream size : 69.9 MiB (13%)
Alignment : Split accross interleaves
Interleave, duration : 40 ms (1.00 video frame)
Interleave, preload duratio : 500 ms
Service kind : Complete Main

Внимание! Раздача ведётся путём добавления новых серий; при каждом добавлении создётся новый торрент. Чтобы начать докачку новой серии, пользователям необходимо сделать следующее:
  • Остановить скачивание,
  • Удалить старый торрент у себя из клиента (старые серии удалять не надо),
  • Скачать новый торрент и запустить его у себя в клиенте вместо старого, при этом указать клиенту путь в старую папку куда и должно происходить скачивание новых серий.
Ваш клиент при этом должен произвести хеширование (проверку) старой папки (если не производит сам - помогите ему сделать это), и будет докачивать только те серии которых у вас ещё нет. Старые серии при этом не удаляются, а продолжают раздаваться!

Eсли вы уже удалили старые серии, то предотвратить повторную закачку старых серий можно, отжав галочку в соответсвующих местах при запуске нового торрента. По возможности, желательно не удалять старые серии как можно дольше чтобы релизёр не столько продолжал раздавать старые серии, а смог сконцентрироваться на новых.
pb.wtf



Скачать Ростов через торрент http://pic1.kartinco.top/images/12/1kntx.jpg Скачать фильм Ростов через торрент бесплантно в хорошем качестве Описание: В центре сюжета - Иван Козырев, «Козырь». В прошлом он – вор-рецидивист, промышлявший в Ростове. Но времена изменились – теперь ... 9.7 10 16
Торрент: Зарегистрирован [2019-04-20 16:05] · скачан: 188 раз
Статус: √ проверено
Размер: 8.71 GB
Как cкачать? Как скачать Ростов через торрент | qTorrent

% Раздел Тема Автор DL S | L
Наши сериалы [ 9.38 GB ] Ростов / Серии: 1-16 из 16 [2019 история SATRip] bober100 Скачать
7 | 3
Наши сериалы [ 20.33 GB ] Ростов / Серии: 1-16 из 16 [2019 история WEBRip 720p] bober100 Скачать
4 | 0
Наши сериалы [ 33.99 GB ] Ростов / Серии: 1-16 из 16 [2019 история WEB-DL 1080p] bober100 Скачать
3 | 0
Наши сериалы [ 12.08 GB ] Ростов / Серии: 1-16 из 16 [2019история WEBRip-AVC] aleksan55 Скачать
10 | 0


>> Регистрируемся здесь <<






Отзывы и комментарии о схеме читаем и пишем здесь: ---> Отзывы и комментарии о схеме

Новые благодарочки в телеграм довольных пользователей:
скриншот   скриншот   скриншот   скриншот   скриншот
    Дорогой пользователь! Огромная просьба, поблагодарите релизера, оцените раздачу и оставьте свои комментарий, если Вы скачали Ростов через торрент бесплатно! Внесите свою лепту в развитие PiratBit!
    Комментировать посты могут только пользователи прошедшие не сложную регистрацию
    Показать сообщения:    

    Ростов через торрент
    Скачать бесплатно Ростов
    Ростов скачать торрент
    Ростов смотреть онлайн
    Cкачать фильм Ростов бесплатно
    Ростов скачать торрент в хорошем качестве
    Ростов смотреть онлайн бесплатно в хорошем качестве


    Вы не можете начинать темы
    Вы не можете отвечать на сообщения
    Вы не можете редактировать свои сообщения
    Вы не можете удалять свои сообщения
    Вы не можете голосовать в опросах
    Вы не можете прикреплять файлы к сообщениям
    Вы можете скачивать файлы