Ссылка на приватное зеркало нашего сайта всего за 1$. Внимание количество ограничено!!!

2 сезон

iTunes

1 сезон

1

iTunes

iTunes

iTunes

1 сезон

RePack

30

ИГРА 18+

pack

ВАЖНО

!!Акция!!

Alien_RageХит недели

RePack

MK11
pack

Забери бонус

RePack

jed

!!Акция!!

Alien_Rage

RePack

fifa19

RePack

Assassins Creed: Odyssey

RePack

NEED FOR SPEED™ PAYBACK

4 сезон

9 сезон

Бесстыжие 9 сезон

Все сериалы

все сериалы на PB.wtf

RePack

FAR CRY 5
  

Катастрофа / Catastrophe / Сезон: 4 / Серии: 1-6 из 6 (Бен Тэйлор) [2019, Комедия, HDTV 1080p] MVO [TVShows] pb.wtf

Катастрофа через торрент pb.wtf

Размер: 9.81 GB | Добавлен: 1 год 3 мес. назад | Торрент скачан:1 раз
Скачать  

16-04-2019 04:24 Катастрофа Скачать торрент  

Катастрофа / Catastrophe

Год выпуска: 2019
Страна: Великобритания / Avalon Television
Жанр: Комедия
Продолжительность: ~ 00:27:00
Перевод: Профессиональный (многоголосый закадровый) | TVShows
Субтитры: английские

Режиссёр: Бен Тэйлор

rating


В ролях:Шэрон Хорган, Роб Делани, Эшли Дженсен, Марк Боннар, Джонатан Форбс, Дэниэл Лапэйн, Марта Баррио, Сара Нилс, Тобайас Мензис, Фрэнсис Томелти

Описание: Комедия о взаимоотношениях ирландки и американца, жизнь которых превращается в кавардак после знакомства друг с другом в Лондоне. Животная похоть, мгновенная беременность и в итоге эта катастрофа становится горючим для разгорающегося пожара взаимоотношений. В этом водовороте событий, пытаясь не выпустить контроль из своих рук, Роб и Шэрон также должны научиться иметь дело с ее ужасной подругой; его эксцентричной Бостонской мамой; и попытаться сориентироваться в изменчивых водах их все дальше и дальше осложняющейся жизни. Смогут ли Шэрон и Роб выпутаться из трудных ситуаций, что подсовывает им жизнь, и в то же время найти время для быстрого перепихона в подъезде?Сэмпл http://sendfile.su/1483758

Качество: HDTV 1080p
Формат: MKV

Видео: 1920x1080 (16:9) | X264 | ~8517 kbps | 23.976 fps
Аудио 1: AC3, 48,0 КГц, 2 ch, 192 kbps - [RUS]
Аудио 2: AC3, 48,0 КГц, 2 ch, 384 kbps - [ENG]
Общее
Уникальный идентификатор : 191801428902708515413341336957786563502 (0x904B9C8D3AE06A9FC375E3B331C8A3AE)
Полное имя : I:\Тифайл\Подготовка\Catastrophe.S04.1080p.TVShows\Catastrophe.S04E01.1080p.TVShows.mkv
Формат : Matroska
Версия формата : Version 4 / Version 2
Размер файла : 1,68 Гбайт
Продолжительность : 26 м. 27 с.
Общий поток : 9094 Кбит/сек
Название фильма : Catastrophe 2015 S04E01 1080p HDTV H264 KETTLE
Дата кодирования : UTC 2019-03-21 21:58:36
Программа кодирования : mkvmerge v31.0.0 ('Dolores In A Shoestand') 64-bit
Библиотека кодирования : libebml v1.3.6 + libmatroska v1.4.9

Видео
Идентификатор : 1
Формат : AVC
Формат/Информация : Advanced Video Codec
Профиль формата : Main@L4
Параметр CABAC формата : Да
Параметр ReFrames формата : 4 кадра
Идентификатор кодека : V_MPEG4/ISO/AVC
Продолжительность : 26 м. 27 с.
Битрейт : 8517 Кбит/сек
Ширина : 1920 пикселей
Высота : 1080 пикселей
Соотношение сторон : 16:9
Режим частоты кадров : Постоянный
Частота кадров : 25,000 кадров/сек
Цветовое пространство : YUV
Субдискретизация насыщенности : 4:2:0
Битовая глубина : 8 бит
Тип развёртки : Чересстрочная
Метод сохранения типа развёртки : Раздельные поля
Порядок развёртки : Верхнее поле первое
Бит/(Пиксели*Кадры) : 0.164
Размер потока : 1,57 Гбайт (94%)
Язык : English
Default : Да
Forced : Нет
Цветовой диапазон : Limited
Основные цвета : BT.709
Характеристики трансфера : BT.709
Коэффициенты матрицы : BT.709

Аудио #1
Идентификатор : 2
Формат : AC-3
Формат/Информация : Audio Coding 3
Параметр Endianness формата : Big
Идентификатор кодека : A_AC3
Продолжительность : 26 м. 27 с.
Вид битрейта : Постоянный
Битрейт : 192 Кбит/сек
Каналы : 2 канала
Расположение каналов : Front: L R
Частота : 48,0 КГц
Частота кадров : 31,250 кадров/сек (1536 spf)
Битовая глубина : 16 бит
Метод сжатия : С потерями
Задержка видео : -200 мс.
Размер потока : 36,3 Мбайт (2%)
Заголовок : TVShows
Язык : Russian
ServiceKind/String : Complete Main
Default : Да
Forced : Да

Аудио #2
Идентификатор : 3
Формат : AC-3
Формат/Информация : Audio Coding 3
Параметр Endianness формата : Big
Идентификатор кодека : A_AC3
Продолжительность : 26 м. 27 с.
Вид битрейта : Постоянный
Битрейт : 384 Кбит/сек
Каналы : 2 канала
Расположение каналов : Front: L R
Частота : 48,0 КГц
Частота кадров : 31,250 кадров/сек (1536 spf)
Битовая глубина : 16 бит
Метод сжатия : С потерями
Размер потока : 72,6 Мбайт (4%)
Заголовок : Original
Язык : English
ServiceKind/String : Complete Main
Default : Нет
Forced : Нет

Текст
Идентификатор : 4
Формат : UTF-8
Идентификатор кодека : S_TEXT/UTF8
Идентификатор кодека/Информация : UTF-8 Plain Text
Продолжительность : 26 м. 20 с.
Битрейт : 152 бит/сек
ElementCount : 405
Размер потока : 29,4 Кбайт (0%)
Заголовок : English
Язык : English
Default : Нет
Forced : Нет

[/code]
Когда раздача ведётся путём добавления новых серий, при каждом добавлении создётся новый торрент. Чтобы начать докачку новой серии, пользователям необходимо сделать следующее:
(1) остановить скачивание,
(2) удалить старый торрент у себя из клиента (старые серии удалять не надо),
(3) скачать новый торрент и запустить его у себя в клиенте вместо старого, при этом указать клиенту путь в старую папку, куда и должно происходить скачивание новых серий.
Ваш клиент при этом должен произвести хеширование (проверку) старой папки (если не производит сам - помогите ему сделать это), и будет докачивать только те серии, которых у вас ещё нет. Старые серии при этом не удаляются, а продолжают раздаваться!
Eсли вы уже удалили старые серии, то предотвратить повторную закачку старых серий можно, отжав галочку в соответсвующих местах при запуске нового торрента. По возможности, желательно не удалять старые серии как можно дольше, чтобы релизёр не столько продолжал раздавать старые серии, а смог сконцентрироваться на новых.
pb.wtf



Скачать Катастрофа через торрент https://d.radikal.ru/d06/1903/e4/4c84d09e720f.jpg Скачать фильм Катастрофа через торрент бесплантно в хорошем качестве Описание: Комедия о взаимоотношениях ирландки и американца, жизнь которых превращается в кавардак после знакомства друг с другом в Лондоне. ... 10 10 2
Торрент: Зарегистрирован [2019-07-17 09:06] · скачан: 1 раз
Статус: √ проверено
Размер: 9.81 GB
Как cкачать? Как скачать Катастрофа через торрент | qTorrent

28-11-2019 20:33  

Отключить всю рекламу на сайте

    Дорогой пользователь! Огромная просьба, поблагодарите релизера, оцените раздачу и оставьте свои комментарий, если Вы скачали Катастрофа через торрент бесплатно! Внесите свою лепту в развитие PiratBit!
    Комментировать посты могут только пользователи прошедшие не сложную регистрацию
    Показать сообщения:    

    Катастрофа через торрент
    Скачать бесплатно Катастрофа
    Катастрофа скачать торрент
    Катастрофа смотреть онлайн
    Cкачать фильм Катастрофа бесплатно
    Катастрофа скачать торрент в хорошем качестве
    Катастрофа смотреть онлайн бесплатно в хорошем качестве


    Вы не можете начинать темы
    Вы не можете отвечать на сообщения
    Вы не можете редактировать свои сообщения
    Вы не можете удалять свои сообщения
    Вы не можете голосовать в опросах
    Вы не можете прикреплять файлы к сообщениям
    Вы можете скачивать файлы