Ссылка на приватное зеркало всего за 1$. Внимание количество ограничено!!!

OK

1+1

iTunes

мы

OK

1

WEB-DLRip

Джокер

Пифагор

Ведьмак / The Witcher сериал

iTunes

ПШазам

ОК

Оно 2

iTunes

30
pack

Вам бонус

ВАЖНО

!!Акция!!

Alien_RageХит недели

RePack

Resident Evil 21

ИГРА 18+

pack

RePack

jed

RePack

fifa19

RePack

Assassins Creed: Odyssey

RePack

NEED FOR SPEED™ PAYBACK

4 сезон

9 сезон

Бесстыжие 9 сезон

Все сериалы

все сериалы на PB.wtf

RePack

FAR CRY 5
  

Стальная страна / Steel Country / A Dark Place (Саймон Феллоуз) [2018, триллер, детектив, WEB-DL 720p] MVO ["Синема УС"] pb.wtf

Стальная страна через торрент pb.wtf

Размер: 3.61 GB | Добавлен: 9 мес. назад | Торрент скачан:69 раз
Скачать  

16-04-2019 05:38 Стальная страна Скачать торрент  

Стальная страна / Steel Country / A Dark Place Год выпуска: 2018
Страна: Великобритания
Жанр: триллер, детектив
Продолжительность: 01:30:22
Перевод: Любительский (многоголосый) | "Синема УС"
Субтитры: отсутствуют

Режиссер: Саймон Феллоуз

rating

В ролях:

Эндрю Скотт, Денис Гоф, Дж.Д. Эвермор, Катрин Дайер, Брона Во, Грифф Ферст, Сандра Эллис Лэфферти, Кристиан Финлейсон, Джаред Банкенс, Кори Скотт Аллен

Описание:

Когда мальчик пропадает без вести на окраине сонного городка в штатах, местный мусорщик Дональд решает разобраться с этим делом сам.

Качество: WEB-DL 720p
Формат: MKV

Видео: 5332 Кбит/с, 1280x536
Аудио: Русский, (AC3, 2 ch, 384 Кбит/с)
скриншот  скриншот  скриншот  

Общее
Уникальный идентификатор : 210812558629319785751340591238621963481 (0x9E99059D5107CCF7A8901FE62DA824D9)
Полное имя : D:\A.Dark.Place.2018.P.WEB-DL.72Op.mkv
Формат : Matroska
Версия формата : Version 2
Размер файла : 3,61 Гбайт
Продолжительность : 1 ч. 30 м.
Режим общего битрейта : Переменный
Общий поток : 5718 Кбит/сек
Дата кодирования : UTC 2019-04-13 14:16:10
Программа кодирования : mkvmerge v8.3.0 ('Over the Horizon') 64bit
Библиотека кодирования : libebml v1.3.1 + libmatroska v1.4.2

Видео
Идентификатор : 1
Формат : AVC
Формат/Информация : Advanced Video Codec
Профиль формата : High@L4.1
Параметр CABAC формата : Да
Параметр RefFrames формата : 4 кадра
Идентификатор кодека : V_MPEG4/ISO/AVC
Продолжительность : 1 ч. 30 м.
Вид битрейта : Переменный
Битрейт : 5332 Кбит/сек
Максимальный битрейт : 6000 Кбит/сек
Ширина : 1280 пикселей
Высота : 536 пикселей
Соотношение сторон : 2,40:1
Режим частоты кадров : Постоянный
Частота кадров : 23,976 (24000/1001) кадра/сек
Стандарт вещания : Component
Цветовое пространство : YUV
Субдискретизация насыщенности : 4:2:0
Битовая глубина : 8 бит
Тип развёртки : Прогрессивная
Бит/(Пиксели*Кадры) : 0.317
Размер потока : 3,30 Гбайт (91%)
Default : Да
Forced : Нет
Цветовой диапазон : Limited
Основные цвета : BT.709
Характеристики трансфера : BT.709
Коэффициенты матрицы : BT.709

Аудио
Идентификатор : 2
Формат : AC-3
Формат/Информация : Audio Coding 3
Расширение режима : CM (complete main)
Параметр Endianness формата : Big
Идентификатор кодека : A_AC3
Продолжительность : 1 ч. 30 м.
Вид битрейта : Постоянный
Битрейт : 384 Кбит/сек
Каналы : 2 канала
Расположение каналов : Front: L R
Частота : 48,0 КГц
Частота кадров : 31,250 кадров/сек (1536 spf)
Метод сжатия : С потерями
Размер потока : 248 Мбайт (7%)
Default : Да
Forced : Нет

pb.wtf



Скачать Стальная страна через торрент https://b.radikal.ru/b01/1904/0c/f9da9e8cf01b.jpg Скачать фильм Стальная страна через торрент бесплантно в хорошем качестве Описание: Когда мальчик пропадает без вести на окраине сонного городка в штатах, местный мусорщик Дональд решает разобраться с этим делом ... 10 10 4
Торрент: Зарегистрирован [2019-04-16 05:38] · скачан: 69 раз
Статус: T временная
Размер: 3.61 GB
Как cкачать? Как скачать Стальная страна через торрент | qTorrent

% Раздел Тема Автор DL S | L
T Фильмы (мультфильмы) cо спонсором показа (Новинки AVI/MKV) [ 1.37 GB ] Стальная страна / Steel Country / A Dark Place [2018 WEB-DLRip] MVO ["Синема УС"] bober100 Скачать
2 | 0

28-11-2019 20:33  

Отключить всю рекламу на сайте

    Дорогой пользователь! Огромная просьба, поблагодарите релизера, оцените раздачу и оставьте свои комментарий, если Вы скачали Стальная страна через торрент бесплатно! Внесите свою лепту в развитие PiratBit!
    Комментировать посты могут только пользователи прошедшие не сложную регистрацию
    Показать сообщения:    

    Стальная страна через торрент
    Скачать бесплатно Стальная страна
    Стальная страна скачать торрент
    Стальная страна смотреть онлайн
    Cкачать фильм Стальная страна бесплатно
    Стальная страна скачать торрент в хорошем качестве
    Стальная страна смотреть онлайн бесплатно в хорошем качестве


    Вы не можете начинать темы
    Вы не можете отвечать на сообщения
    Вы не можете редактировать свои сообщения
    Вы не можете удалять свои сообщения
    Вы не можете голосовать в опросах
    Вы не можете прикреплять файлы к сообщениям
    Вы можете скачивать файлы