MEGA SALE -75% Borderlands 3 Super Deluxe всего за 550р. 180 руб. (супер цена). Внимание количество ограничено!!!

iTunes

1+1

iTunes

мы

iTunes

1

iTunes

Чернобыль

iTunes

Ральф против интернета

Лицензия

ПШазам

Лицензия

Игра престолов

Лицензия

30
pack

ВАЖНО

!!Акция!!

Alien_RageХит недели

RePack

Resident Evil 21

ИГРА 18+

pack

RePack

Metro:Exodus

!!Акция!!

Alien_Rage

RePack

fifa19

RePack

Assassins Creed: Odyssey

RePack

NEED FOR SPEED™ PAYBACK

3 сезон

9 сезон

Бесстыжие 9 сезон

Все сериалы

все сериалы на PB.wtf

RePack

FAR CRY 5
Ребята, катастрофически не хватает 1900р. для оплаты серверов за АВГУСТ (всвязи с блокировками трафик упал в 3 раза), 1-2р., выручайте.
  

Время не ждёт / Shun liu Ni liu (Цуй Харк) [2000, драма, боевик, криминал, триллер, BDRip 1080p by msltel] MVO pb.wtf

Время не ждёт через торрент pb.wtf

Размер: 10.5 GB | Добавлен: 5 мес. назад | Торрент скачан:2 раза
Скачать  

16-04-2019 07:12 Время не ждёт Скачать торрент  

Название: Время не ждёт
Оригинальное название: Shun liu Ni liu
Год выпуска: 2000
Страна: Гонконг, Китай
Жанр: драма, боевик, криминал, триллер
Продолжительность: 01:53:19
Перевод: профессиональный многоголосый

Режиссер: Цуй Харк
В ролях: Николас Тсе, Ву Бай, Кэнди Ло, Кэти Цуй, Энтони Вон, Альберт, Тсу Чун Бон, Уильям Чан, Джек Као, Чанг Хунг Оун

О фильме: Тайлеру, 21-летнему жителю Гонконга, всю жизнь непросто завоевать доверие людей. Он тайно мечтает о хорошей жизни в Южной Америке, но вскоре ему предстоит столкнуться с реальностью грядущего отцовства...



Качество: BDRip 1080p
Формат: MKV
Видео: MPEG-4 AVC, 12.1 Mбит/с, 1920x816
Аудио 1: русский, AC3, 384 kbps, 6 ch, 48 kHz [закадровый многоголосый]
Аудио 2: китайский, DTS, 768 kbps, 6 ch, 48 kHz [оригинал]
Субтитры: английские
Главы/чаптеры
Общее
Уникальный идентификатор : 252897759808876481789345338287284620108 (0xBE42563BB2FAE94CACA56C7ED2C50B4C)
Полное имя : D:\Video\Время не ждёт.2000.BDRip 1080p by msltel.mkv
Формат : Matroska
Версия формата : Version 4
Размер файла : 10,5 Гбайт
Продолжительность : 1 ч. 53 м.
Общий поток : 13,2 Мбит/сек
Название фильма : Rip by msltel
Дата кодирования : UTC 2019-04-16 01:59:03
Программа кодирования : mkvmerge v8.2.0 ('World of Adventure') 64bit
Библиотека кодирования : libebml v1.3.1 + libmatroska v1.4.2

Видео
Идентификатор : 1
Формат : AVC
Формат/Информация : Advanced Video Codec
Профиль формата : High@L4.1
Настройки формата : CABAC / 4 Ref Frames
Параметр CABAC формата : Да
Параметр RefFrames формата : 4 кадра
Идентификатор кодека : V_MPEG4/ISO/AVC
Продолжительность : 1 ч. 53 м.
Битрейт : 12,1 Мбит/сек
Ширина : 1920 пикселей
Высота : 816 пикселей
Соотношение сторон : 2,35:1
Режим частоты кадров : Постоянный
Частота кадров : 23,976 (24000/1001) кадра/сек
Цветовое пространство : YUV
Субдискретизация насыщенности : 4:2:0
Битовая глубина : 8 бит
Тип развёртки : Прогрессивная
Бит/(Пиксели*Кадры) : 0.322
Размер потока : 9,58 Гбайт (91%)
Библиотека кодирования : x264 core 157 r2935 545de2f
Настройки программы : cabac=1 / ref=4 / deblock=1:-2:-2 / analyse=0x3:0x113 / me=umh / subme=11 / psy=1 / psy_rd=1.00:0.15 / mixed_ref=1 / me_range=32 / chroma_me=1 / trellis=2 / 8x8dct=1 / cqm=0 / deadzone=21,11 / fast_pskip=0 / chroma_qp_offset=-3 / threads=6 / lookahead_threads=1 / sliced_threads=0 / nr=0 / decimate=1 / interlaced=0 / bluray_compat=0 / constrained_intra=0 / bframes=7 / b_pyramid=2 / b_adapt=2 / b_bias=0 / direct=1 / weightb=1 / open_gop=0 / weightp=2 / keyint=230 / keyint_min=23 / scenecut=40 / intra_refresh=0 / rc_lookahead=40 / rc=crf / mbtree=1 / crf=22.0 / qcomp=0.60 / qpmin=0 / qpmax=69 / qpstep=4 / vbv_maxrate=50000 / vbv_bufsize=62500 / crf_max=0.0 / nal_hrd=none / filler=0 / ip_ratio=1.40 / aq=1:1.00
Язык : Chinese
Default : Да
Forced : Нет

Аудио #1
Идентификатор : 2
Формат : AC-3
Формат/Информация : Audio Coding 3
Коммерческое название : Dolby Digital
Идентификатор кодека : A_AC3
Продолжительность : 1 ч. 53 м.
Вид битрейта : Постоянный
Битрейт : 384 Кбит/сек
Каналы : 6 каналов
Channel layout : L R C LFE Ls Rs
Частота : 48,0 КГц
Частота кадров : 31,250 кадров/сек (1536 SPF)
Битовая глубина : 16 бит
Метод сжатия : С потерями
Размер потока : 311 Мбайт (3%)
Заголовок : MVO
Язык : Russian
ServiceKind/String : Complete Main
Default : Да
Forced : Нет

Аудио #2
Идентификатор : 3
Формат : DTS
Формат/Информация : Digital Theater Systems
Идентификатор кодека : A_DTS
Продолжительность : 1 ч. 53 м.
Вид битрейта : Постоянный
Битрейт : 768 Кбит/сек
Каналы : 6 каналов
Channel layout : C L R Ls Rs LFE
Частота : 48,0 КГц
Частота кадров : 93,750 кадра/сек (512 SPF)
Битовая глубина : 24 бит
Метод сжатия : С потерями
Размер потока : 623 Мбайт (6%)
Заголовок : original
Язык : Chinese
Default : Нет
Forced : Нет

Текст
Идентификатор : 4
Формат : UTF-8
Идентификатор кодека : S_TEXT/UTF8
Идентификатор кодека/Информация : UTF-8 Plain Text
Продолжительность : 1 ч. 49 м.
Битрейт : 39 бит/сек
ElementCount : 1036
Размер потока : 31,9 Кбайт (0%)
Заголовок : английские
Язык : English
Default : Нет
Forced : Нет

Меню
00:00:00.000 : en:01
00:07:30.450 : en:02
00:15:30.346 : en:03
00:22:33.185 : en:04
00:35:59.157 : en:05
00:45:44.283 : en:06
00:53:05.557 : en:07
01:02:21.571 : en:08
01:10:38.568 : en:09
01:22:03.210 : en:10
01:35:21.883 : en:11
01:42:20.134 : en:12
01:50:52.479 : en:13
pb.wtf



Скачать Время не ждёт через торрент https://a.radikal.ru/a00/1904/f4/83d5400a5e22.jpg Скачать фильм Время не ждёт через торрент бесплантно в хорошем качестве О фильме: Тайлеру, 21-летнему жителю а, всю жизнь непросто завоевать доверие людей. Он тайно мечтает о хорошей жизни в Южной ... 5 10 1
Торрент: Зарегистрирован [2019-04-16 07:12] · скачан: 2 раз
Статус: √ проверено
Размер: 10.5 GB
Как cкачать? Как скачать Время не ждёт через торрент | qTorrent

% Раздел Тема Автор DL S | L
Азиатские фильмы [ 4.39 GB ] Время не ждёт / Shun liu Ni liu [2000 BDRip 720p by msltel] MVO msltel Скачать
1 | 0


>> Регистрируемся здесь <<






Отзывы и комментарии о схеме читаем и пишем здесь: ---> Отзывы и комментарии о схеме

Новые благодарочки в телеграм довольных пользователей:
скриншот   скриншот   скриншот   скриншот   скриншот
    Дорогой пользователь! Огромная просьба, поблагодарите релизера, оцените раздачу и оставьте свои комментарий, если Вы скачали Время не ждёт через торрент бесплатно! Внесите свою лепту в развитие PiratBit!
    Комментировать посты могут только пользователи прошедшие не сложную регистрацию
    Показать сообщения:    

    Время не ждёт через торрент
    Скачать бесплатно Время не ждёт
    Время не ждёт скачать торрент
    Время не ждёт смотреть онлайн
    Cкачать фильм Время не ждёт бесплатно
    Время не ждёт скачать торрент в хорошем качестве
    Время не ждёт смотреть онлайн бесплатно в хорошем качестве


    Вы не можете начинать темы
    Вы не можете отвечать на сообщения
    Вы не можете редактировать свои сообщения
    Вы не можете удалять свои сообщения
    Вы не можете голосовать в опросах
    Вы не можете прикреплять файлы к сообщениям
    Вы можете скачивать файлы