Ссылка на приватное зеркало нашего сайта всего за 1$. Внимание количество ограничено!!!

2 сезон

iTunes

1 сезон

1

iTunes

iTunes

iTunes

1 сезон

RePack

30

ИГРА 18+

pack

ВАЖНО

!!Акция!!

Alien_RageХит недели

RePack

MK11
pack

Забери бонус

RePack

jed

!!Акция!!

Alien_Rage

RePack

fifa19

RePack

Assassins Creed: Odyssey

RePack

NEED FOR SPEED™ PAYBACK

4 сезон

9 сезон

Бесстыжие 9 сезон

Все сериалы

все сериалы на PB.wtf

RePack

FAR CRY 5
  

Инкассаторы / Сезон: 1 / Серии: 1-8 из 8 (Юрий Быков) [2012, Драма, криминал, WEB-DL 1080p] pb.wtf

Инкассаторы через торрент pb.wtf

Размер: 12.03 GB | Добавлен: 1 год 6 мес. назад | Торрент скачан:52 раза
Скачать  

16-04-2019 09:32 Инкассаторы Скачать торрент  

Инкассаторы Год выпуска: 2012
Страна: Россия
Жанр: Драма, криминал
Продолжительность: ~ 00:52:00
Субтитры: отсутствуют

Режиссер: Юрий Быков

rating

В ролях:

Даниил Страхов, Елена Лядова, Алексей Комашко, Денис Шведов, Андрей Казаков, Александр Коршунов, Владислав Толдыков, Юрий Тарасов, Дмитрий Куличков, Александр Цуркан, Константин Гацалов, Юрий Быков, Светозар Головлев, Алексей Матошин, Анастасия Панина, Владимир Беркун, Марина Гайзидорская, Ольга Ковылина, Екатерина Присмотрова-Белова, Александра Бледная, Полина Лазарева, Григорий Иванец, Никита Емшанов, Егор Клейменов, Игорь Сыхра, Николай Скурт, Ангелина Коршунова, Татьяна Рыбинец, Ирина Темичева, Павел Абраменков, Юлия Галина, Михаил Люлинецкий, Владислав Дунаев, Сергей Граб, Сергей Марухин, Анзор Камариддинов, Дмитрий Толкачев

Описание:

На группу инкассаторов одного крупного банка совершено дерзкое нападение. Один инкассатор убит, другой тяжело ранен. По тому, как чётко и слаженно выполнен налёт, следователи подозревают, что у бандитов есть информатор среди инкассаторов. Но кое о чём следователи не догадываются: денег украдено гораздо больше, чем значится по документам. В машине был "чёрный нал", о котором не следует знать органам.Начальник службы безопасности банка решает, втайне от следствия, внедрить в группу инкассаторов своего человека: психолога Вадима. Он должен вычислить среди них предателя, который участвует в подготовке ограблений. Мотивы и возможности есть практически у каждого... Вадиму предстоит освоиться в новом для себя качестве и сделать очень непростой выбор.

Качество: WEB-DL 1080p
Формат: MKV

Видео: MPEG-4 AVC, ~ 4000 Кбит/с, 1920x1080
Аудио: AC3, 2 ch, 192 Кбит/с
скриншот  скриншот  скриншот  скриншот  

General
Unique ID : 193145270213785228034117948492811191131 (0x914E6D0B3336EA5B9F9191BF3A95C35B)
Complete name : F:\Inkassatory.2012.Getty.WEBDL1080p\Inkassatory.e01.2012.Getty.WEBDL1080p.mkv
Format : Matroska
Format version : Version 4 / Version 2
File size : 1.52 GiB
Duration : 51mn 59s
Overall bit rate : 4 191 Kbps
Movie name : Inkassatory.e01.2012.Getty.WEBDL1080p
Encoded date : UTC 2013-06-21 04:55:27
Writing application : mkvmerge v6.2.0 ('Promised Land') built on Apr 28 2013 12:22:01
Writing library : libebml v1.3.0 + libmatroska v1.4.0

Video
ID : 1
Format : AVC
Format/Info : Advanced Video Codec
Format profile : High@L4.0
Format settings, CABAC : Yes
Format settings, ReFrames : 3 frames
Codec ID : V_MPEG4/ISO/AVC
Duration : 51mn 59s
Bit rate : 4 000 Kbps
Width : 1 920 pixels
Height : 1 080 pixels
Display aspect ratio : 16:9
Frame rate mode : Constant
Frame rate : 25.000 fps
Color space : YUV
Chroma subsampling : 4:2:0
Bit depth : 8 bits
Scan type : Progressive
Bits/(Pixel*Frame) : 0.077
Stream size : 1.42 GiB (93%)
Writing library : x264 core 120
Encoding settings : cabac=1 / ref=3 / deblock=1:0:0 / analyse=0x3:0x133 / me=umh / subme=7 / psy=1 / psy_rd=1.00:0.00 / mixed_ref=1 / me_range=32 / chroma_me=1 / trellis=2 / 8x8dct=1 / cqm=0 / deadzone=21,11 / fast_pskip=1 / chroma_qp_offset=-2 / threads=12 / sliced_threads=0 / nr=0 / decimate=1 / interlaced=0 / bluray_compat=0 / constrained_intra=0 / bframes=0 / weightp=0 / keyint=75 / keyint_min=26 / scenecut=40 / intra_refresh=0 / rc_lookahead=50 / rc=2pass / mbtree=0 / bitrate=4000 / ratetol=1.0 / qcomp=0.20 / qpmin=10 / qpmax=51 / qpstep=4 / cplxblur=20.0 / qblur=0.5 / vbv_maxrate=5000 / vbv_bufsize=5000 / nal_hrd=none / ip_ratio=1.40 / aq=1:1.00
Default : Yes
Forced : No
Color primaries : BT.709
Transfer characteristics : BT.709
Matrix coefficients : BT.709

Audio
ID : 2
Format : AC-3
Format/Info : Audio Coding 3
Mode extension : CM (complete main)
Format settings, Endianness : Big
Codec ID : A_AC3
Duration : 51mn 59s
Bit rate mode : Constant
Bit rate : 192 Kbps
Channel(s) : 2 channels
Channel positions : Front: L R
Sampling rate : 48.0 KHz
Bit depth : 16 bits
Compression mode : Lossy
Stream size : 71.4 MiB (5%)
Default : Yes
Forced : No

pb.wtf



Скачать Инкассаторы через торрент http://i47.fastpic.ru/big/2013/0621/26/e700024a2b4bd96b989f54416df03326.jpg Скачать фильм Инкассаторы через торрент бесплантно в хорошем качестве Описание: На группу инкассаторов одного крупного банка совершено дерзкое нападение. Один инкассатор убит, другой тяжело ранен. По тому, как ... 10 10 6
Торрент: Зарегистрирован [2019-04-16 09:32] · скачан: 52 раз
Статус: √ проверено
Размер: 12.03 GB
Как cкачать? Как скачать Инкассаторы через торрент | qTorrent

% Раздел Тема Автор DL S | L
Наши сериалы [ 6.32 GB ] Инкассаторы [2012 DVDRip] yrgent9032 Скачать
1 | 0
Наши сериалы [ 4.48 GB ] Инкассаторы / Сезон: 1 / Серии: 8 из 8 [2012 SATRip] -=Cherry=- Скачать
1 | 0

28-11-2019 20:33  

Отключить всю рекламу на сайте

    Дорогой пользователь! Огромная просьба, поблагодарите релизера, оцените раздачу и оставьте свои комментарий, если Вы скачали Инкассаторы через торрент бесплатно! Внесите свою лепту в развитие PiratBit!
    Комментировать посты могут только пользователи прошедшие не сложную регистрацию
    Показать сообщения:    

    Инкассаторы через торрент
    Скачать бесплатно Инкассаторы
    Инкассаторы скачать торрент
    Инкассаторы смотреть онлайн
    Cкачать фильм Инкассаторы бесплатно
    Инкассаторы скачать торрент в хорошем качестве
    Инкассаторы смотреть онлайн бесплатно в хорошем качестве


    Вы не можете начинать темы
    Вы не можете отвечать на сообщения
    Вы не можете редактировать свои сообщения
    Вы не можете удалять свои сообщения
    Вы не можете голосовать в опросах
    Вы не можете прикреплять файлы к сообщениям
    Вы можете скачивать файлы