Доктор Стрэндж

Лицензия

Добыча

Дубляж

Дом дракона

1 сезон

Тор

Дубляж

В эфире

Дубляж

Там, где раки поют

MVO

Властелин колец

1 сезон

GLOBAL

pack

Рекомендуем

30

Пиратка

ВАЖНО

ВАЖНО

Ghostwire

Пиратка

jed

RePack

nioh2

RePack

RDR2

RePack

NEED FOR SPEED™ PAYBACK

RePack

скачать торрент

Кинопоиск HD

Острые козырьки 6 сезон

6 сезон

FAR CRY 6

RePack

скачать торрент

Лицензия

скачать торрент

MVO

1

1 сезон

скачать торрент

1 сезон

скачать торрент

Лицензия

  

Семья по-быстрому / Instant Family (Шон Андерс) [2018, драма, комедия, BD Remux 1080p] MVO [HDRezka]

Семья по-быстрому через торрент pb.wtf

Размер: 26.21 GB | Добавлен: 3 года 7 мес. назад | Торрент скачан:34 раза
Смотреть онлайн | Скачать   

16-04-2019 11:51 Семья по-быстрому Скачать торрент  

Семья по-быстрому / Instant Family Год выпуска: 2018
Страна: США
Жанр: драма, комедия
Продолжительность: 01:58:05
Перевод: Профессиональный (многоголосый) | HDRezka
Субтитры: Русские (full), Английские (full)

Режиссер: Шон Андерс

rating

В ролях:

Марк Уолберг, Роуз Бирн, Изабела Монер, Густаво Куирос мл., Джулианна Гамиз, Октавия Спенсер, Тиг Нотаро, Том Сегура, Эллин Рэйчел, Бритт Рентшлер

Описание:

В центре сюжета оказываются супруги Пит и Элли. Считая, что в мире слишком много сирот, они решают усыновить ребенка. Супруги вступают в сложную систему усыновления и участвуют в занятиях по подготовке к воспитанию. Сперва они надеялись взять только одного ребенка, но в силу возникших обстоятельств супруги становятся приемными родителями сразу троих детей, старшей из которых, бунтарке Лиззи, уже исполнилось 15 лет. И теперь Питу и Элли нужно приложить максимум усилий, чтобы превратить «семью по-быстрому» в настоящую...

Качество: BD Remux 1080p
Формат: MKV

Видео: H.264, 1920x1080, 27.4 Mbps, 23.976 fps
Аудио#1: Русский (АС3, 2ch, 192 Кбит/с, 48.0 KHz) Профессиональный (многоголосый, закадровый) HDRezka
Аудио#2: DTS-HD MA, 8.0 ch, 3976 Kbps | Английский
Аудио#3: AC-3, 2.0 ch, 224 Kbps | Английский Комментарии
скриншот  скриншот  скриншот  скриншот  

General
Unique ID : 264770062616250545142262477521787427838 (0xC730DBF455859E829A2EF9BD1DC21BFE)
Complete name : /Volumes/Promise/Instant.Family.BDRemux.1080p.pk.mkv
Format : Matroska
Format version : Version 4
File size : 26.2 GiB
Duration : 1h 58mn
Overall bit rate mode : Variable
Overall bit rate : 31.8 Mbps
Movie name : Instant Family
Encoded date : UTC 2019-04-16 09:51:29
Writing application : mkvmerge v33.1.0 ('Primrose') 64-bit
Writing library : libebml v1.3.7 + libmatroska v1.5.0
Cover : Yes
Attachments : small_cover.jpg / small_cover_land.jpg / cover.jpg / cover_land.jpg / cover.jpg

Video
ID : 1
Format : AVC
Format/Info : Advanced Video Codec
Format profile : [email protected]
Format settings : CABAC / 4 Ref Frames
Format settings, CABAC : Yes
Format settings, ReFrames : 4 frames
Codec ID : V_MPEG4/ISO/AVC
Duration : 1h 58mn
Bit rate mode : Variable
Bit rate : 27.4 Mbps
Maximum bit rate : 30.5 Mbps
Width : 1 920 pixels
Height : 1 080 pixels
Display aspect ratio : 16:9
Frame rate mode : Constant
Frame rate : 23.976 (24000/1001) fps
Color space : YUV
Chroma subsampling : 4:2:0
Bit depth : 8 bits
Scan type : Progressive
Bits/(Pixel*Frame) : 0.551
Stream size : 22.6 GiB (86%)
Language : English
Default : Yes
Forced : No

Audio #1
ID : 2
Format : AC-3
Format/Info : Audio Coding 3
Commercial name : Dolby Digital
Codec ID : A_AC3
Duration : 1h 58mn
Bit rate mode : Constant
Bit rate : 192 Kbps
Channel(s) : 2 channels
Channel layout : L R
Sampling rate : 48.0 KHz
Frame rate : 31.250 fps (1536 SPF)
Bit depth : 16 bits
Compression mode : Lossy
Stream size : 162 MiB (1%)
Title : Russian HDRezka MVO
Language : Russian
Service kind : Complete Main
Default : Yes
Forced : Yes

Audio #2
ID : 3
Format : DTS XLL
Format/Info : Digital Theater Systems
Commercial name : DTS-HD Master Audio
Codec ID : A_DTS
Duration : 1h 58mn
Bit rate mode : Variable
Bit rate : 3 976 Kbps
Channel(s) : 8 channels
Channel layout : C L R LFE Lb Rb Lss Rss
Sampling rate : 48.0 KHz
Frame rate : 93.750 fps (512 SPF)
Bit depth : 24 bits
Compression mode : Lossless
Stream size : 3.28 GiB (13%)
Title : Original English DTS-HD MA
Language : English
Default : No
Forced : No

Audio #3
ID : 4
Format : AC-3
Format/Info : Audio Coding 3
Commercial name : Dolby Digital
Codec ID : A_AC3
Duration : 1h 58mn
Bit rate mode : Constant
Bit rate : 224 Kbps
Channel(s) : 2 channels
Channel layout : L R
Sampling rate : 48.0 KHz
Frame rate : 31.250 fps (1536 SPF)
Bit depth : 16 bits
Compression mode : Lossy
Stream size : 189 MiB (1%)
Title : English-COMMENTARY
Language : English
Service kind : Complete Main
Default : No
Forced : No

Text #1
ID : 5
Format : UTF-8
Codec ID : S_TEXT/UTF8
Codec ID/Info : UTF-8 Plain Text
Duration : 1h 57mn
Bit rate : 177 bps
Count of elements : 2366
Stream size : 153 KiB (0%)
Title : Russian full
Language : Russian
Default : Yes
Forced : No

Text #2
ID : 6
Format : UTF-8
Codec ID : S_TEXT/UTF8
Codec ID/Info : UTF-8 Plain Text
Duration : 1h 52mn
Bit rate : 97 bps
Count of elements : 2136
Stream size : 80.0 KiB (0%)
Title : English full
Language : English
Default : No
Forced : No

Menu
00:00:00.000 : en:Chapter 01
00:07:54.807 : en:Chapter 02
00:13:08.621 : en:Chapter 03
00:24:59.539 : en:Chapter 04
00:32:26.235 : en:Chapter 05
00:37:12.897 : en:Chapter 06
00:44:44.264 : en:Chapter 07
00:50:12.467 : en:Chapter 08
00:57:41.249 : en:Chapter 09
01:02:31.831 : en:Chapter 10
01:08:50.751 : en:Chapter 11
01:15:25.854 : en:Chapter 12
01:23:04.688 : en:Chapter 13
01:28:42.567 : en:Chapter 14
01:37:53.993 : en:Chapter 15
01:52:54.392 : en:Chapter 16




Скачать Семья по-быстрому через торрент https://i109.fastpic.ru/big/2019/0416/dc/6cda8c2e4c8aefa9c4f6180d183d65dc.jpg Скачать, смотреть онлайн Семья по-быстрому бесплантно в хорошем качестве Описание: В центре сюжета оказываются супруги Пит и Элли. Считая, что в мире слишком много сирот, они решают усыновить ребенка. Супруги ... 10 10 2
Торрент: Зарегистрирован [2019-04-16 11:51] · скачан: 34 раз
Статус: T временная
Размер: 26.21 GB
Как cкачать? Как скачать Семья по-быстрому через торрент | UTorrent

% Раздел Тема Автор DL S | L
Фильмы 2018 [DVDrip, WEB-DLRip, HDrip] (DUB, MVO) [ 746 MB ] Семья по-быстрому / Instant Family | Лицензия BD EUR | BDRip bober100 Скачать
1 | 0
Фильмы 2018 [DVDrip, WEB-DLRip, HDrip] (DUB, MVO) [ 1.46 GB ] Семья по-быстрому / Instant Family | Лицензия | BDRip Twi7ter Скачать
4 | 0
Фильмы (Blu-ray, BD-Remux, HDDVD) [ 26.39 GB ] Семья по-быстрому / Instant Family | Лицензия | 1080p sheker187 Скачать
1 | 0
Фильмы [HD 720p, 1080p] (Хороший звук DUB, MVO) [ 14.12 GB ] Семья по-быстрому / Instant Family | Лицензия | 1080p sheker187 Скачать
1 | 0
T Фильмы 2018 [DVDrip, WEB-DLRip, HDrip] (DUB, MVO) [ 2.01 GB ] Семья по-быстрому / Instant Family | HDRezka Studio | BDRip-AVC bober100 Скачать
1 | 0
T Фильмы [HD 720p, 1080p] (Хороший звук DUB, MVO) [ 9.35 GB ] Семья по-быстрому / Instant Family | MVO | 1080p bober100 Скачать
1 | 0
T Фильмы с украинским озвучиванием [ 1.48 GB ] Семья по-быстрому / Instant Family | DUB | BDRip killermax2013 Скачать
1 | 0

28-11-2019 20:33  


Отключить вcю реклaмy на сайте, в т.ч. и в плеере онлайн просмотра!

    Дорогой пользователь! Огромная просьба, поблагодарите релизера, оцените раздачу и оставьте свои комментарий, если Вы скачали Семья по-быстрому через торрент бесплатно!!
    Комментировать посты могут только пользователи прошедшие не сложную регистрацию
    Показать сообщения:    


    Семья по-быстрому через торрент
    Скачать бесплатно Семья по-быстрому
    Семья по-быстрому скачать торрент
    Семья по-быстрому смотреть онлайн
    Cкачать фильм Семья по-быстрому бесплатно
    Семья по-быстрому скачать торрент в хорошем качестве
    Семья по-быстрому смотреть онлайн бесплатно в хорошем качестве
    Вы не можете начинать темы
    Вы не можете отвечать на сообщения
    Вы не можете редактировать свои сообщения
    Вы не можете удалять свои сообщения
    Вы не можете голосовать в опросах
    Вы не можете прикреплять файлы к сообщениям
    Вы можете скачивать файлы
    Семья по-быстрому / Instant Family [2018, драма, комедия, BD Remux 1080p] MVO [HDRezka] смотреть онлайн, скачать торрент picoco.icu