Ссылка на приватное зеркало всего за 1$. Внимание количество ограничено!!!

OK

1+1

iTunes

мы

OK

1

WEB-DLRip

Джокер

Пифагор

Ведьмак / The Witcher сериал

Лицензия

ПШазам

ОК

Оно 2

iTunes

30
pack

Вам бонус

ВАЖНО

!!Акция!!

Alien_RageХит недели

RePack

Resident Evil 21

ИГРА 18+

pack

RePack

jed

RePack

fifa19

RePack

Assassins Creed: Odyssey

RePack

NEED FOR SPEED™ PAYBACK

4 сезон

9 сезон

Бесстыжие 9 сезон

Все сериалы

все сериалы на PB.wtf

RePack

FAR CRY 5
  

Богемская рапсодия / Bohemian Rhapsody (Брайан Сингер) [2018, драма, биография, музыка, UHD BDRip 2160p] [HDR10+] DUB (rus, ukr) [Лицензия] + AVO [М.Яроцкий] pb.wtf

Богемская рапсодия через торрент pb.wtf

Размер: 25.78 GB | Добавлен: 9 мес. назад | Торрент скачан:42 раза
Скачать  

16-04-2019 13:03 Богемская рапсодия Скачать торрент  

Богемская рапсодия / Bohemian Rhapsody««Круче их музыки только их история»»

Год выпуска: 2018
Страна: Великобритания, США
Жанр: драма, биография, музыка
Продолжительность: 02:14:30
Перевод: Дублированный, авторский
Субтитры: Русские форсированные (диск, песни М.Яроцкий), полные х2 (диск, FOCS), украинские (форсированные, полные), английские
Режиссер: Брайан Сингер
В ролях:

Рами Малек (Freddie Mercury), Люси Бойнтон (Mary Austin), Гвилим Ли (Brian May), Бен Харди (Roger Taylor), Джозеф Маццелло (John Deacon), Эйдан Гиллен (John Reid), Аллен Лич (Paul Prenter), Том Холландер (Jim Beach), Майк Майерс (Ray Foster), Аарон МакКаскер (Jim Hutton), Менека Дас (Jer Bulsara), Эйс Бхатти (Bomi Bulsara)
Описание:
Чествование группы Queen, их музыки и их выдающегося вокалиста Фредди Меркьюри, который бросил вызов стереотипам и победил условности, чтобы стать одним из самых любимых артистов на планете. Фильм прослеживает головокружительный путь группы к успеху благодаря их культовым песням и революционному звуку, практически распад коллектива, поскольку образ жизни Меркьюри выходит из-под контроля, и их триумфальное воссоединение накануне концерта Live Aid, ставшим одним из величайших выступлений в истории рок-музыки.
Рейтинг:

MPAA: PG-13 - Детям до 13 лет просмотр не желателен
Качество: UHD BDRip 2160p
Формат: MKV
Видео: HEVC, 19.4 Mбит/с, 3840x2160, 23.976 кадр/с, 10 бит
Аудио 1: 48 kHz, DTS, 5.1, 768 Kbps | RUS | Дублированный | Лицензия
Аудио 2: 48 kHz, DTS, 5.1, 1509 Kbps | RUS | Авторский одноголосый М.Яроцкий |
Аудио 3: 48 kHz, AC3, 5.1, 448 Kbps | UKR | Дублированный
Аудио 4: 48 kHz, TrueHD, 7.1, 4611 Kbps | ENG |
Аудио 5: 48 kHz, AC3, 5.1, 640 Kbps | ENG |
Навигация по главам: есть

Общее
Уникальный идентификатор : 213997296198816734560662398390128723247 (0xA0FE614CB53CED64899797CEA0E9C52F)
Полное имя : E:\Bohemian.Rhapsody.2018.2160p.UHD.BluRay.X265.10bit.HDR10Plus.Master5.mkv
Формат : Matroska
Версия формата : Version 4 / Version 2
Размер файла : 25,8 Гбайт
Продолжительность : 2 ч. 14 м.
Режим общего битрейта : Переменный
Общий поток : 27,4 Мбит/сек
Название фильма : Bohemian.Rhapsody.2018.2160p.UHD.BluRay.X265.10bit.HDR10Plus.Master5
Дата кодирования : UTC 2019-04-16 05:44:46
Программа кодирования : mkvmerge v7.9.0 ('Birds') 64bit
Библиотека кодирования : libebml v1.3.1 + libmatroska v1.4.2

Видео
Идентификатор : 1
Формат : HEVC
Формат/Информация : High Efficiency Video Coding
Коммерческое название : HDR10
Профиль формата : Main 10@L5.1@High
Идентификатор кодека : V_MPEGH/ISO/HEVC
Продолжительность : 2 ч. 14 м.
Битрейт : 19,4 Мбит/сек
Ширина : 3840 пикселей
Высота : 2160 пикселей
Соотношение сторон : 16:9
Режим частоты кадров : Постоянный
Частота кадров : 23,976 (24000/1001) кадра/сек
Цветовое пространство : YUV
Субдискретизация насыщенности : 4:2:0 (Type 2)
Битовая глубина : 10 бит
Бит/(Пиксели*Кадры) : 0.097
Размер потока : 18,2 Гбайт (71%)
Заголовок : Bohemian.Rhapsody.2018.2160p.UHD.BluRay.X265.10bit.HDR10Plus.Master5
Библиотека кодирования : x265 3.0+1-ed72af837053:[Windows][MSVC 1900][64 bit] 10bit
Настройки программы : cpuid=1176575 / frame-threads=6 / numa-pools=36 / wpp / no-pmode / no-pme / no-psnr / no-ssim / log-level=2 / input-csp=1 / input-res=3840x2160 / interlace=0 / total-frames=193656 / level-idc=51 / high-tier=1 / uhd-bd=0 / ref=4 / no-allow-non-conformance / repeat-headers / annexb / aud / hrd / info / hash=0 / no-temporal-layers / no-open-gop / min-keyint=24 / keyint=240 / gop-lookahead=0 / bframes=8 / b-adapt=2 / b-pyramid / bframe-bias=0 / rc-lookahead=30 / lookahead-slices=4 / scenecut=40 / radl=0 / no-splice / no-intra-refresh / ctu=64 / min-cu-size=8 / rect / no-amp / max-tu-size=32 / tu-inter-depth=2 / tu-intra-depth=2 / limit-tu=4 / rdoq-level=2 / dynamic-rd=0.00 / no-ssim-rd / signhide / no-tskip / nr-intra=0 / nr-inter=0 / no-constrained-intra / no-strong-intra-smoothing / max-merge=3 / limit-refs=2 / limit-modes / me=3 / subme=3 / merange=57 / temporal-mvp / weightp / no-weightb / no-analyze-src-pics / deblock=-3:-3 / no-sao / no-sao-non-deblock / rd=6 / no-early-skip / rskip / no-fast-intra / no-tskip-fast / no-cu-lossless / no-b-intra / no-splitrd-skip / rdpenalty=0 / psy-rd=2.00 / psy-rdoq=1.00 / no-rd-refine / no-lossless / cbqpoffs=0 / crqpoffs=0 / rc=crf / crf=15.0 / qcomp=0.60 / qpstep=4 / stats-write=0 / stats-read=0 / vbv-maxrate=160000 / vbv-bufsize=160000 / vbv-init=0.9 / crf-max=0.0 / crf-min=0.0 / ipratio=1.40 / pbratio=1.30 / aq-mode=1 / aq-strength=1.00 / cutree / zone-count=0 / no-strict-cbr / qg-size=32 / no-rc-grain / qpmax=69 / qpmin=0 / no-const-vbv / sar=1 / overscan=0 / videoformat=5 / range=0 / colorprim=9 / transfer=16 / colormatrix=9 / chromaloc=1 / chromaloc-top=2 / chromaloc-bottom=2 / display-window=0 / master-display=G(13250,34500)B(7500,3000)R(34000,16000)WP(15635,16450)L(10000000,50) / max-cll=0,0 / min-luma=0 / max-luma=1023 / log2-max-poc-lsb=8 / vui-timing-info / vui-hrd-info / slices=1 / no-opt-qp-pps / no-opt-ref-list-length-pps / no-multi-pass-opt-rps / scenecut-bias=0.05 / no-opt-cu-delta-qp / no-aq-motion / hdr / hdr-opt / dhdr10-opt / no-idr-recovery-sei / analysis-reuse-level=5 / scale-factor=0 / refine-intra=0 / refine-inter=0 / refine-mv=0 / refine-ctu-distortion=0 / no-limit-sao / ctu-info=0 / no-lowpass-dct / refine-analysis-type=0 / copy-pic=1 / max-ausize-factor=1.0 / no-dynamic-refine / no-single-sei / no-hevc-aq / qp-adaptation-range=1.00
Default : Да
Forced : Нет
Цветовой диапазон : Limited
Основные цвета : BT.2020
Характеристики трансфера : PQ
Коэффициенты матрицы : BT.2020 non-constant
MasteringDisplay_ColorPrimaries : Display P3
MasteringDisplay_Luminance : min: 0.0050 cd/m2, max: 1000 cd/m2

Аудио #1
Идентификатор : 2
Формат : DTS
Формат/Информация : Digital Theater Systems
Идентификатор кодека : A_DTS
Продолжительность : 2 ч. 14 м.
Вид битрейта : Постоянный
Битрейт : 768 Кбит/сек
Каналы : 6 каналов
Расположение каналов : Front: L C R, Side: L R, LFE
Частота : 48,0 КГц
Частота кадров : 93,750 кадра/сек (512 SPF)
Битовая глубина : 24 бит
Метод сжатия : С потерями
Размер потока : 739 Мбайт (3%)
Заголовок : Дублированный
Язык : Russian
Default : Нет
Forced : Нет

Аудио #2
Идентификатор : 3
Формат : DTS
Формат/Информация : Digital Theater Systems
Профиль формата : ES Matrix / Core
Идентификатор кодека : A_DTS
Продолжительность : 2 ч. 14 м.
Вид битрейта : Постоянный
Битрейт : 1509 Кбит/сек
Каналы : 7 каналов / 6 каналов
Расположение каналов : Front: L C R, Side: L R, Back: C, LFE / Front: L C R, Side: L R, LFE
Частота : 48,0 КГц
Частота кадров : 93,750 кадра/сек (512 SPF)
Битовая глубина : 24 бит
Метод сжатия : С потерями
Размер потока : 1,42 Гбайт (6%)
Заголовок : Авторский одноголосый (М.Яроцкий)
Язык : Russian
Default : Нет
Forced : Нет

Аудио #3
Идентификатор : 4
Формат : AC-3
Формат/Информация : Audio Coding 3
Идентификатор кодека : A_AC3
Продолжительность : 2 ч. 14 м.
Вид битрейта : Постоянный
Битрейт : 448 Кбит/сек
Каналы : 6 каналов
Расположение каналов : Front: L C R, Side: L R, LFE
Частота : 48,0 КГц
Частота кадров : 31,250 кадров/сек (1536 SPF)
Битовая глубина : 16 бит
Метод сжатия : С потерями
Размер потока : 431 Мбайт (2%)
Заголовок : Дублированный
Язык : Ukrainian
ServiceKind/String : Complete Main
Default : Нет
Forced : Нет

Аудио #4
Идентификатор : 5
Формат : TrueHD
Профиль формата : TrueHD+Atmos / TrueHD
Идентификатор кодека : A_TRUEHD
Продолжительность : 2 ч. 14 м.
Вид битрейта : Переменный
Битрейт : 4611 Кбит/сек
Максимальный битрейт : 8277 Кбит/сек
Каналы : Object Based / 8 каналов
Расположение каналов : Object Based / Front: L C R, Side: L R, Back: L R, LFE
Частота : / 48,0 КГц
Частота кадров : 1200,000 кадров/сек (40 SPF)
Метод сжатия : Без потерь
Размер потока : 4,34 Гбайт (17%)
Заголовок : Atmos 7.1
Язык : English
Default : Да
Forced : Нет

Аудио #5
Идентификатор : 6
Формат : AC-3
Формат/Информация : Audio Coding 3
Идентификатор кодека : A_AC3
Продолжительность : 2 ч. 14 м.
Вид битрейта : Постоянный
Битрейт : 640 Кбит/сек
Каналы : 6 каналов
Расположение каналов : Front: L C R, Side: L R, LFE
Частота : 48,0 КГц
Частота кадров : 31,250 кадров/сек (1536 SPF)
Битовая глубина : 16 бит
Метод сжатия : С потерями
Размер потока : 616 Мбайт (2%)
Заголовок : AC-3 5.1
Язык : English
ServiceKind/String : Complete Main
Default : Нет
Forced : Нет

Текст #1
Идентификатор : 7
Формат : UTF-8
Идентификатор кодека : S_TEXT/UTF8
Идентификатор кодека/Информация : UTF-8 Plain Text
Продолжительность : 2 ч. 13 м.
Битрейт : 2 бит/сек
ElementCount : 55
Размер потока : 2,81 Кбайт (0%)
Заголовок : форсированные
Язык : Russian
Default : Да
Forced : Нет

Текст #2
Идентификатор : 8
Формат : UTF-8
Идентификатор кодека : S_TEXT/UTF8
Идентификатор кодека/Информация : UTF-8 Plain Text
Продолжительность : 2 ч. 0 м.
Битрейт : 17 бит/сек
ElementCount : 292
Размер потока : 15,1 Кбайт (0%)
Заголовок : текст песен
Язык : Russian
Default : Нет
Forced : Нет

Текст #3
Идентификатор : 9
Формат : UTF-8
Идентификатор кодека : S_TEXT/UTF8
Идентификатор кодека/Информация : UTF-8 Plain Text
Продолжительность : 2 ч. 13 м.
Битрейт : 72 бит/сек
ElementCount : 1753
Размер потока : 70,7 Кбайт (0%)
Заголовок : полные
Язык : Russian
Default : Нет
Forced : Нет

Текст #4
Идентификатор : 10
Формат : UTF-8
Идентификатор кодека : S_TEXT/UTF8
Идентификатор кодека/Информация : UTF-8 Plain Text
Продолжительность : 2 ч. 13 м.
Битрейт : 3 бит/сек
ElementCount : 71
Размер потока : 3,87 Кбайт (0%)
Заголовок : форсированные
Язык : Ukrainian
Default : Нет
Forced : Нет

Текст #5
Идентификатор : 11
Формат : UTF-8
Идентификатор кодека : S_TEXT/UTF8
Идентификатор кодека/Информация : UTF-8 Plain Text
Продолжительность : 2 ч. 13 м.
Битрейт : 77 бит/сек
ElementCount : 1753
Размер потока : 75,4 Кбайт (0%)
Заголовок : полные
Язык : Ukrainian
Default : Нет
Forced : Нет

Текст #6
Идентификатор : 12
Формат : UTF-8
Идентификатор кодека : S_TEXT/UTF8
Идентификатор кодека/Информация : UTF-8 Plain Text
Продолжительность : 2 ч. 11 м.
Битрейт : 92 бит/сек
ElementCount : 2269
Размер потока : 88,9 Кбайт (0%)
Заголовок : полные
Язык : English
Default : Нет
Forced : Нет

Меню
00:00:00.000 : en:Chapter 01
00:03:48.728 : en:Chapter 02
00:07:45.465 : en:Chapter 03
00:11:16.593 : en:Chapter 04
00:17:41.811 : en:Chapter 05
00:21:03.179 : en:Chapter 06
00:27:24.184 : en:Chapter 07
00:33:34.846 : en:Chapter 08
00:37:22.282 : en:Chapter 09
00:45:24.013 : en:Chapter 10
00:52:19.595 : en:Chapter 11
00:56:57.205 : en:Chapter 12
01:03:11.413 : en:Chapter 13
01:10:44.991 : en:Chapter 14
01:15:25.730 : en:Chapter 15
01:21:45.901 : en:Chapter 16
01:26:59.172 : en:Chapter 17
01:32:18.199 : en:Chapter 18
01:36:43.923 : en:Chapter 19
01:43:25.574 : en:Chapter 20
01:50:23.283 : en:Chapter 21
01:54:22.898 : en:Chapter 22
02:00:41.109 : en:Chapter 23
02:07:53.332 : en:Chapter 24
pb.wtf



Скачать Богемская рапсодия через торрент https://a.radikal.ru/a13/1904/e0/79ee3fe6a96b.png Скачать фильм Богемская рапсодия через торрент бесплантно в хорошем качестве Описание: Чествование группы Queen, их музыки и их выдающегося вокалиста Фредди Меркьюри, который бросил вызов стереоам и победил ... 10 10 4
Торрент: Зарегистрирован [2019-04-16 13:03] · скачан: 42 раз
Статус: √ проверено
Размер: 25.78 GB
Как cкачать? Как скачать Богемская рапсодия через торрент | qTorrent

% Раздел Тема Автор DL S | L
Фильмы [HD 720p, 1080p] (Хороший звук DUB, MVO) [ 14.09 GB ] Богемская рапсодия / Bohemian Rhapsody [2018 биография музыка BDRip 1080p] DUB [] bober100 Скачать
3 | 0
Фильмы 2018 [DVDrip, WEB-DLRip, HDrip] (DUB, MVO) [ 1.46 GB ] Богемская рапсодия / Bohemian Rhapsody [2018 биография музыка BDRip] - [] Twi7ter Скачать
2 | 0
Фильмы (HD 720p, 1080p) (48-60 fps) [ 5.02 GB ] Богемская рапсодия / Bohemian Rhapsody [2018 биография музыка BDRip - HEVC 1080p 12 bit 60 FPS] DUB - dd2d3 Скачать
4 | 0
Фильмы (WEB-DL 720p, 1080p) [ 7.67 GB ] Богемская рапсодия / Bohemian Rhapsody [2018 биография музыка WEB-DL 1080p] [AMAZON Version] DUB bober100 Скачать
10 | 0
Фильмы [HD 720p, 1080p] (Хороший звук DUB, MVO) [ 5.52 GB ] Богемская рапсодия / Bohemian Rhapsody [2018 биография музыка BDRip 720p Dub MVO AVO] от ExKinoRay morfyi Скачать
7 | 0
Фильмы 2018 [DVDrip, WEB-DLRip, HDrip] (DUB, MVO) [ 3.46 GB ] Богемская рапсодия / Bohemian Rhapsody [2018 биография музыка BDRip-AVC] AVO [М.Яроцкий] +DUB [] bober100 Скачать
1 | 0
Ultra HD (UHD: 2K, 4K, 8K) — видео сверхвысокой чёткости [ 41.14 GB ] Богемская рапсодия / Bohemian Rhapsody [2018 биография музыка UHD BDRemux 2160p] [] sheker187 Скачать
2 | 0

28-11-2019 20:33  

Отключить всю рекламу на сайте

    Дорогой пользователь! Огромная просьба, поблагодарите релизера, оцените раздачу и оставьте свои комментарий, если Вы скачали Богемская рапсодия через торрент бесплатно! Внесите свою лепту в развитие PiratBit!
    Комментировать посты могут только пользователи прошедшие не сложную регистрацию
    Показать сообщения:    

    Богемская рапсодия через торрент
    Скачать бесплатно Богемская рапсодия
    Богемская рапсодия скачать торрент
    Богемская рапсодия смотреть онлайн
    Cкачать фильм Богемская рапсодия бесплатно
    Богемская рапсодия скачать торрент в хорошем качестве
    Богемская рапсодия смотреть онлайн бесплатно в хорошем качестве


    Вы не можете начинать темы
    Вы не можете отвечать на сообщения
    Вы не можете редактировать свои сообщения
    Вы не можете удалять свои сообщения
    Вы не можете голосовать в опросах
    Вы не можете прикреплять файлы к сообщениям
    Вы можете скачивать файлы