Ссылка на приватное зеркало нашего сайта всего за 1$. Внимание количество ограничено!!!

2 сезон

iTunes

1 сезон

1

2 сезон

2 сезон

iTunes

1 сезон

RePack

30

Ultimate

ВАЖНО

ИГРА 18+

pack

RePack

MK11
pack

Забери бонус

RePack

jed

!!Акция!!

Alien_Rage

RePack

fifa19

RePack

Assassins Creed: Odyssey

RePack

NEED FOR SPEED™ PAYBACK

4 сезон

9 сезон

Бесстыжие 9 сезон

Все сериалы

все сериалы на PB.wtf

RePack

FAR CRY 5
  

Давно потерянный / Long Lost (Эрик С. Блумквист) [2018, Триллер, драма, детектив, WEB-DL 1080p] MVO [HDRezka Studio] pb.wtf

Давно потерянный через торрент pb.wtf

Размер: 4.79 GB | Добавлен: 1 год 6 мес. назад | Торрент скачан:60 раз
Скачать  

16-04-2019 14:17 Давно потерянный Скачать торрент  

Давно потерянный / Long Lost Год выпуска: 2018
Страна: США
Жанр: Триллер, драма, детектив
Продолжительность: 01:34:37
Перевод: Профессиональный (многоголосый) | HDRezka Studio
Субтитры: Английские

Режиссер: Эрик С. Блумквист

rating

В ролях:

Адам Веплер, Катрин Коркоран, Николас Туччи

Описание:

Сет получает таинственное письмо с приглашением провести выходные в уединенном особняке загородом, но вскоре понимает, что люди в доме могут знать его лучше, чем он сам.

Качество: WEB-DL 1080p
Формат: MKV

Видео: MPEG-4 AVC, 6464 Кбит/с, 1920x800
Аудио: Русский: AC3, 2 ch, 192 Кбит/с - HDRezka Studio
Аудио: Английский: E-AC3, 6 ch, 640 Кбит/с - Original
скриншот  скриншот  скриншот  скриншот  

General
Unique ID : 86145533949548309255915562981173400230 (0x40CF06BE4667030CD4F2DFAD961292A6)
Complete name : G:Long.Lost.2018.WEB-DL.1080p.mkv
Format : Matroska
Format version : Version 4 / Version 2
File size : 4.79 GiB
Duration : 1 h 33 min
Overall bit rate : 7 298 kb/s
Encoded date : UTC 2019-04-27 03:04:50
Writing application : mkvmerge v20.0.0 ('I Am The Sun') 64-bit
Writing library : libebml v1.3.5 + libmatroska v1.4.8

Video
ID : 1
Format : AVC
Format/Info : Advanced Video Codec
Format profile : High@L4
Format settings : CABAC / 4 Ref Frames
Format settings, CABAC : Yes
Format settings, RefFrames : 4 frames
Codec ID : V_MPEG4/ISO/AVC
Duration : 1 h 33 min
Bit rate mode : Constant
Bit rate : 6 464 kb/s
Nominal bit rate : 10 000 kb/s
Width : 1 920 pixels
Height : 800 pixels
Display aspect ratio : 2.40:1
Frame rate mode : Constant
Frame rate : 24.000 FPS
Color space : YUV
Chroma subsampling : 4:2:0
Bit depth : 8 bits
Scan type : Progressive
Bits/(Pixel*Frame) : 0.175
Stream size : 4.24 GiB (89%)
Language : English
Default : Yes
Forced : No
Color range : Limited
Color primaries : BT.709
Transfer characteristics : BT.709
Matrix coefficients : BT.709

Audio #1
ID : 2
Format : AC-3
Format/Info : Audio Coding 3
Codec ID : A_AC3
Duration : 1 h 33 min
Bit rate mode : Constant
Bit rate : 192 kb/s
Channel(s) : 2 channels
Channel positions : Front: L R
Sampling rate : 48.0 kHz
Frame rate : 31.250 FPS (1536 SPF)
Bit depth : 16 bits
Compression mode : Lossy
Stream size : 129 MiB (3%)
Title : MVO, HDRezka Studio
Language : Russian
Service kind : Complete Main
Default : Yes
Forced : No

Audio #2
ID : 3
Format : E-AC-3
Format/Info : Enhanced Audio Coding 3
Codec ID : A_EAC3
Duration : 1 h 33 min
Bit rate mode : Constant
Bit rate : 640 kb/s
Channel(s) : 6 channels
Channel positions : Front: L C R, Side: L R, LFE
Sampling rate : 48.0 kHz
Frame rate : 187.500 FPS (256 SPF)
Compression mode : Lossy
Stream size : 430 MiB (9%)
Language : English
Service kind : Complete Main
Default : No
Forced : No

Text
ID : 4
Format : UTF-8
Codec ID : S_TEXT/UTF8
Codec ID/Info : UTF-8 Plain Text
Duration : 1 h 31 min
Bit rate : 64 b/s
Count of elements : 1743
Stream size : 43.5 KiB (0%)
Language : English
Default : No
Forced : No

pb.wtf



Скачать Давно потерянный через торрент https://b.radikal.ru/b17/1904/d8/4bde105b6ad8.jpg Скачать фильм Давно потерянный через торрент бесплантно в хорошем качестве Описание: Сет получает таинственное письмо с приглашением провести выходные в уединенном особняке загородом, но вскоре понимает, что люди в ... 10 10 5
Торрент: Зарегистрирован [2019-04-27 08:32] · скачан: 60 раз
Статус: T временная
Размер: 4.79 GB
Как cкачать? Как скачать Давно потерянный через торрент | qTorrent

% Раздел Тема Автор DL S | L
T Фильмы (мультфильмы) cо спонсором показа (Новинки AVI/MKV) [ 1.37 GB ] Давно потерянный / Long Lost [2018 WEB-DLRip] MVO [AlphaProject] bober100 Скачать
1 | 0

28-11-2019 20:33  

Отключить всю рекламу на сайте

    Дорогой пользователь! Огромная просьба, поблагодарите релизера, оцените раздачу и оставьте свои комментарий, если Вы скачали Давно потерянный через торрент бесплатно! Внесите свою лепту в развитие PiratBit!
    Комментировать посты могут только пользователи прошедшие не сложную регистрацию
    Показать сообщения:    

    Давно потерянный через торрент
    Скачать бесплатно Давно потерянный
    Давно потерянный скачать торрент
    Давно потерянный смотреть онлайн
    Cкачать фильм Давно потерянный бесплатно
    Давно потерянный скачать торрент в хорошем качестве
    Давно потерянный смотреть онлайн бесплатно в хорошем качестве


    Вы не можете начинать темы
    Вы не можете отвечать на сообщения
    Вы не можете редактировать свои сообщения
    Вы не можете удалять свои сообщения
    Вы не можете голосовать в опросах
    Вы не можете прикреплять файлы к сообщениям
    Вы можете скачивать файлы