Ссылка на приватное зеркало нашего сайта всего за 1$. Внимание количество ограничено!!!

2 сезон

iTunes

1 сезон

1

iTunes

iTunes

iTunes

1 сезон

RePack

30

ИГРА 18+

pack

ВАЖНО

!!Акция!!

Alien_RageХит недели

RePack

MK11
pack

Забери бонус

RePack

jed

!!Акция!!

Alien_Rage

RePack

fifa19

RePack

Assassins Creed: Odyssey

RePack

NEED FOR SPEED™ PAYBACK

4 сезон

9 сезон

Бесстыжие 9 сезон

Все сериалы

все сериалы на PB.wtf

RePack

FAR CRY 5
  

Фарца / Сезон: 1 / Серии: 1-8 из 8 (Егор Баранов) [2015, Драматическая сага, HDTVRip] pb.wtf

Фарца через торрент pb.wtf

Размер: 5.85 GB | Добавлен: 1 год 6 мес. назад | Торрент скачан:53 раза
Скачать  

16-04-2019 16:25 Фарца Скачать торрент  

Фарца
Год выпуска: 2015
Страна: Россия
Жанр: Драматическая сага
Продолжительность: ~ 00:50:00 серия
Перевод: Не требуется
Субтитры: отсутствуют

Режиссер: Егор Баранов

rating

В ролях:

Александр Петров (II), Алексей Весёлкин (младший), Филипп Горенштейн, Максим Емельянов, Зоя Бербер, Таисия Вилкова, Евгений Стычкин, Ева Андреевайте, Алексей Серебряков, Александр Яценко, Екатерина Волкова, Елена Антипова, Алексей Кирющенко, Тимофей Трибунцев, Людмила Аринина, Александр Ляпин, Даниэль Аргаман, Евгений Цыганов, Даниил Страхов, Давид Петросян

Описание:

События происходят с 1961 года по 1991 год. В центре истории - дружба четырех парней, готовых ради дружбы на все. У всех свои мечты, но обстоятельства сложатся таким образом, что они будут вынуждены окунуться во все виды подпольной экономики начала 60-х. У них все получается, но чем лучше у них всё получается, тем дальше герои от воплощения своих настоящих мечтаний...

Качество: HDTVRip
Формат: AVI

Видео: 720x400 (1.80:1), 25 fps, XviD build 73 ~1798 kbps avg, 0.25 bit/pixel
Аудио: 48 kHz, AC3 Dolby Digital, 2/0 (L,R) ch, ~192 kbps
скриншот   скриншот   скриншот   скриншот  

Общее
Полное имя : F:\Farca.HDTVRip.GeneralFilm\Farca.01.HDTVRip.GeneralFilm.avi
Формат : AVI
Формат/Информация : Audio Video Interleave
Размер файла : 733 Мбайт
Продолжительность : 51 м.
Общий поток : 2001 Кбит/сек
Программа кодирования : VirtualDubMod 1.5.10.3 | www.virtualdub-fr.org || (build 2550/release)
Библиотека кодирования : VirtualDubMod build 2550/release

Видео
Идентификатор : 0
Формат : MPEG-4 Visual
Профиль формата : Advanced Simple@L5
Параметр BVOP формата : 1
Параметр QPel формата : Нет
Параметр GMC формата : Без точки перехода
Параметр матрицы формата : Выборочная
Идентификатор кодека : XVID
Идентификатор кодека/Подсказка : XviD
Продолжительность : 51 м.
Битрейт : 1799 Кбит/сек
Ширина : 720 пикс.
Высота : 400 пикс.
Соотношение сторон : 16:9
Частота кадров : 25,000 кадр/сек
Цветовое пространство : YUV
Подвыборка цветности : 4:2:0
Битовая глубина : 8 бит
Тип развёртки : Прогрессивная
Метод сжатия : С потерями
Бит/(Пиксели*Кадры) : 0.250
Размер потока : 659 Мбайт (90%)
Библиотека кодирования : XviD 73

Аудио
Идентификатор : 1
Формат : AC-3
Формат/Информация : Audio Coding 3
Расширение режима : CM (complete main)
Идентификатор кодека : 2000
Продолжительность : 51 м.
Вид битрейта : Постоянный
Битрейт : 192 Кбит/сек
Каналы : 2 канала
Расположение каналов : Front: L R
Частота : 48,0 КГц
Битовая глубина : 16 бит
Метод сжатия : С потерями
Размер потока : 70,3 Мбайт (10%)
Выравнивание : Разделение по промежуткам
Продолжительность промежутка : 40 мс. (1,00 видеокадр)
Время предзагрузки промежутка : 500 ms

pb.wtf



Скачать Фарца через торрент http://img12.lostpic.net/2018/02/26/66e0e2cc38619a79d48f8026f85f81c9.jpg Скачать фильм Фарца через торрент бесплантно в хорошем качестве Описание: События происходят с 1961 года по 1991 год. В центре истории - дружба четырех парней, готовых ради дружбы на все. У всех свои ... 10 10 3
Торрент: Зарегистрирован [2019-04-16 16:25] · скачан: 53 раз
Статус: √ проверено
Размер: 5.85 GB
Как cкачать? Как скачать Фарца через торрент | qTorrent

% Раздел Тема Автор DL S | L
Наши сериалы [ 22.75 GB ] Фарца / Сезон: 1 / Серии: 1-8 из 8 [2015 тическая сага HDTV 1080i] bober100 Скачать
1 | 0
Наши сериалы [ 12.45 GB ] Фарца / Сезон: 1 / Серии 1-8 из 8 [2015 HDTVRip 720p] DEVI Скачать
1 | 0
Наши сериалы [ 5.86 GB ] Фарца / Сезон: 1 / Серии 1-8 из 8 [2015 Россия SATRip) GEKADOL Скачать
1 | 0
Наши сериалы [ 5.03 GB ] Фарца / Сезон: 1 / Серии 1-8 из 8 [2015 Россия WEBRip) GEKADOL Скачать
1 | 0

28-11-2019 20:33  

Отключить всю рекламу на сайте

    Дорогой пользователь! Огромная просьба, поблагодарите релизера, оцените раздачу и оставьте свои комментарий, если Вы скачали Фарца через торрент бесплатно! Внесите свою лепту в развитие PiratBit!
    Комментировать посты могут только пользователи прошедшие не сложную регистрацию
    Показать сообщения:    

    Фарца через торрент
    Скачать бесплатно Фарца
    Фарца скачать торрент
    Фарца смотреть онлайн
    Cкачать фильм Фарца бесплатно
    Фарца скачать торрент в хорошем качестве
    Фарца смотреть онлайн бесплатно в хорошем качестве


    Вы не можете начинать темы
    Вы не можете отвечать на сообщения
    Вы не можете редактировать свои сообщения
    Вы не можете удалять свои сообщения
    Вы не можете голосовать в опросах
    Вы не можете прикреплять файлы к сообщениям
    Вы можете скачивать файлы