Anonymous, доброе утро, присоединяйтесь к нам в Telegram!, здесь всегда актуальный адрес сайта, оперативная поддержка и многое другое!

>

5.6

iTunes

7.4

iTunes

5.7

MVO

1

7.7

1 сезон

6.8

iTunes

7.3

1 сезон

13

6.7

1 сезон

8.3

RePack

30

ULTIMATE

pack

9.9

Лицензия

ВАЖНО

ИГРА 18+

pack

7.3

RePack

MK11

7.7

RePack

jed

7.8

RePack

fifa19

8.5

RePack

RDR2

RePack

NEED FOR SPEED™ PAYBACK

4 сезон

9 сезон

Бесстыжие 9 сезон

Все сериалы

все сериалы на PB.wtf

RePack

FAR CRY 5

Anonymous, доброе утро, мы катастрофически не успеваем собрать деньги на оплату серверов, помогите нам пожалуйста 5,10,15р., для нас важна любая помощь . В качестве благодарности мы отключим Вам всю рекламу на сайте (укажите свой ник в строку Ваше имя)!

×
  
Magnet ссылка

Студия 17 / Сезон: 1 / Серии: 1-16 из 16 (Сергей Сенцов, Александр Наумов) [2013, комедия, WEB-DL 1080p] pb.wtf

Студия 17 через торрент pb.wtf

Размер: 14.26 GB | Добавлен: 2 года 5 мес. назад | Торрент скачан:20 раз
Смотреть онлайн Студия 17 | Скачать    Ребята, помогите собрать деньги на оплату серверов!!!

16-04-2019 16:38 Студия 17 Скачать торрент  

Студия 17 Год выпуска: 2013
Страна: Россия
Жанр: комедия
Продолжительность: ~ 00:25:00
Перевод: Не требуется
Субтитры: отсутствуют

Режиссер: Сергей Сенцов, Александр Наумов



В ролях:

Валентин Гафт, Гоша Куценко, Константин Крюков, Евгений Стеблов, Анастасия Привалова, Валерий Сотов, Ирина Гавра, Семён Трескунов, Александр Молочников, Яна Кошкина, Анастасия Сова-Егорова, Алиса Феоктистова, Анастасия Клюева, Наталья Земцова, Карина Зверева, Николай Ларин, Андрей Москвичёв, Мария Дорогова, Чулпан Хаматова

Описание:

Сериал о друзьях, которые открывают свою студию по производству видеороликов. Они хотят успеха, денег и женщин. Но все, что у них есть сейчас, это старая автомойка, которую они решают переделать под видеостудию. Свобода, дружба, любовь и общий бизнес - мечты сбываются, когда тебе 20 и вся жизнь впереди!

Качество: WEB-DL 1080p
Формат: MKV

Видео: MPEG-4 AVC, ~ 5000 Кбит/с, 1920x1080
Аудио: AC3, 2 ch, 192 Кбит/с
скриншот  скриншот  скриншот  скриншот  

Общее
Уникальный идентификатор : 244327869548088547045926080184829805389 (0xB7CFD6057A941F12A2ABF9A5D6C3034D)
Полное имя : D:\Studija.17.2013.WEB-DL.(1080p).ExKinoRay\Studija.17.(01.seriya).2013.WEB-DL.(1080p).ExKinoRay.mkv
Формат : Matroska
Версия формата : Version 2
Размер файла : 1,54 Гбайт
Продолжительность : 42 м. 49 с.
Режим общего битрейта : Постоянный
Общий поток : 5132 Кбит/сек
Название фильма : Studija.17.(01.seriya).2013.WEB-DL.(1080p).ExKinoRay
Дата кодирования : UTC 2018-09-24 17:23:38
Программа кодирования : mkvmerge v5.8.0 ('No Sleep / Pillow') built on Sep 2 2012 15:37:04
Библиотека кодирования : libebml v1.2.3 + libmatroska v1.3.0

Видео
Идентификатор : 1
Формат : AVC
Формат/Информация : Advanced Video Codec
Профиль формата : Baseline@L4
Параметр CABAC формата : Нет
Параметр RefFrames формата : 4 кадра
Параметр GOP формата : M=1, N=50
Идентификатор кодека : V_MPEG4/ISO/AVC
Продолжительность : 42 м. 49 с.
Вид битрейта : Постоянный
Битрейт : 5000 Кбит/сек
Ширина : 1920 пикселей
Высота : 1080 пикселей
Соотношение сторон : 16:9
Режим частоты кадров : Постоянный
Частота кадров : 25,000 кадров/сек
Стандарт вещания : PAL
Цветовое пространство : YUV
Субдискретизация насыщенности : 4:2:0
Битовая глубина : 8 бит
Тип развёртки : Прогрессивная
Бит/(Пиксели*Кадры) : 0.096
Размер потока : 1,45 Гбайт (94%)
Default : Да
Forced : Нет
Цветовой диапазон : Limited
Основные цвета : BT.709
Характеристики трансфера : BT.709
Коэффициенты матрицы : BT.709

Аудио
Идентификатор : 2
Формат : AC-3
Формат/Информация : Audio Coding 3
Расширение режима : CM (complete main)
Параметр Endianness формата : Big
Идентификатор кодека : A_AC3
Продолжительность : 42 м. 49 с.
Вид битрейта : Постоянный
Битрейт : 192 Кбит/сек
Каналы : 2 канала
Расположение каналов : Front: L R
Частота : 48,0 КГц
Частота кадров : 31,250 кадров/сек (1536 spf)
Метод сжатия : С потерями
Размер потока : 58,8 Мбайт (4%)
Язык : Russian
Default : Да
Forced : Нет

pb.wtf



Скачать Студия 17 через торрент https://b.radikal.ru/b13/1809/71/f1498628cb5d.jpg Скачать, смотреть онлайн Студия 17 бесплантно в хорошем качестве Описание: Сериал о друзьях, которые открывают свою студию по производству видеороликов. Они хотят успеха, денег и женщин. Но все, что у них ... 10 10 2
Торрент: Зарегистрирован [2019-04-16 16:38] · скачан: 20 раз
Статус: √ проверено
Размер: 14.26 GB
Как cкачать? Как скачать Студия 17 через торрент | UTorrent

28-11-2019 20:33  

Отключить всю рекламу на сайте

    Дорогой пользователь! Огромная просьба, поблагодарите релизера, оцените раздачу и оставьте свои комментарий, если Вы скачали Студия 17 через торрент бесплатно!
    Комментировать посты могут только пользователи прошедшие не сложную регистрацию
    Показать сообщения:    

    Студия 17 через торрент
    Скачать бесплатно Студия 17
    Студия 17 скачать торрент
    Студия 17 смотреть онлайн
    Cкачать фильм Студия 17 бесплатно
    Студия 17 скачать торрент в хорошем качестве
    Студия 17 смотреть онлайн бесплатно в хорошем качестве


    Вы не можете начинать темы
    Вы не можете отвечать на сообщения
    Вы не можете редактировать свои сообщения
    Вы не можете удалять свои сообщения
    Вы не можете голосовать в опросах
    Вы не можете прикреплять файлы к сообщениям
    Вы можете скачивать файлы