Присоединяйтесь к нам в Telegram!, здесь всегда актуальный адрес сайта, оперативная поддержка и многое другое!!

>

5.9

iTunes

7.4

iTunes

9.4

1 сезон

1

7.4

2 сезон

7.2

iTunes

7.3

1 сезон

13

6.1

iTunes

8.3

GOG

30

ULTIMATE

pack

9.9

Лицензия

ВАЖНО

ИГРА 18+

pack

7.3

RePack

MK11

7.7

RePack

jed

7.8

RePack

fifa19

8.5

RePack

RDR2

RePack

NEED FOR SPEED™ PAYBACK

5 сезон

9 сезон

Бесстыжие 9 сезон

Все сериалы

все сериалы на PB.wtf

RePack

FAR CRY 5

Anonymous, доброй ночи, мы катастрофически не успеваем собрать деньги на оплату серверов, помогите нам пожалуйста 5,10,15р., для нас важна любая помощь . В качестве благодарности мы отключим Вам всю рекламу на сайте (укажите свой ник в строку Ваше имя)!

×
  
Magnet ссылка

Пропаганда - Белое платье [ 2019, Поп, WEBRip 1080p] pb.wtf

Пропаганда - Белое платье через торрент pb.wtf

Размер: 133 MB | Добавлен: 2 года 7 мес. назад | Торрент скачан:66 раз
Смотреть онлайн Пропаганда - Белое платье | Скачать    Ребята, помогите собрать деньги на оплату серверов!!!

16-04-2019 18:56 Пропаганда - Белое платье Скачать торрент  

Пропаганда - Белое платье
Страна: Россия
Жанр: Поп
Продолжительность: 00:03:56

Описание: Клип группы Пропаганда на песню "Белое платье"

Качество: WEBRip 1080p
Формат: MP4
Видео кодек: AVC
Аудио кодек: AAC
Видео: AVC, 1920x1080 , 25.0fps, 4500 Kbps
Аудио#1: AAC , 2 ch , 44,1 kHz , 192 bps
скриншот   скриншот   скриншот   скриншот  

Общее
Полное имя : D:Пропаганда - Белое платье. by Аристократ.mp4
Формат : MPEG-4
Профиль формата : Base Media
Идентификатор кодека : isom
Размер файла : 133 Мбайт
Продолжительность : 3 м. 56 с.
Режим общего битрейта : Переменный
Общий поток : 4707 Кбит/сек
Программа кодирования : Lavf58.20.100

Видео
Идентификатор : 1
Формат : AVC
Формат/Информация : Advanced Video Codec
Профиль формата : High@L4.0
Параметр CABAC формата : Да
Параметр ReFrames формата : 4 кадра
Идентификатор кодека : avc1
Идентификатор кодека/Информация : Advanced Video Coding
Продолжительность : 3 м. 56 с.
Вид битрейта : Переменный
Битрейт : 4500 Кбит/сек
Ширина : 1920 пикселей
Высота : 1080 пикселей
Соотношение сторон : 16:9
Режим частоты кадров : Постоянный
Частота кадров : 25,000 кадров/сек
Цветовое пространство : YUV
Субдискретизация насыщенности : 4:2:0
Битовая глубина : 8 бит
Тип развёртки : Прогрессивная
Бит/(Пиксели*Кадры) : 0.087
Размер потока : 127 Мбайт (96%)

Аудио
Идентификатор : 2
Формат : AAC
Формат/Информация : Advanced Audio Codec
Профиль формата : LC
Идентификатор кодека : 40
Продолжительность : 3 м. 56 с.
Вид битрейта : Постоянный
Битрейт : 192 Кбит/сек
Каналы : 2 канала
Расположение каналов : Front: L R
Частота : 44,1 КГц
Метод сжатия : С потерями
Размер потока : 5,41 Мбайт (4%)

pb.wtf



Скачать Пропаганда - Белое платье через торрент https://pic1.kartinco.top/images/12/jypy3.jpg Скачать, смотреть онлайн Пропаганда - Белое платье [ 2019, Поп, WEBRip 1080p] бесплантно в хорошем качестве Описание: Клип группы Пропаганда на песню "Белое ... 9.6 10 5
Торрент: Зарегистрирован [2019-04-16 18:56] · скачан: 66 раз
Статус: √ проверено
Размер: 133 MB
Как cкачать? Как скачать Пропаганда - Белое платье через торрент | UTorrent

28-11-2019 20:33  

Отключить всю рекламу на сайте

    Дорогой пользователь! Огромная просьба, поблагодарите релизера, оцените раздачу и оставьте свои комментарий, если Вы скачали Пропаганда - Белое платье через торрент бесплатно!
    Комментировать посты могут только пользователи прошедшие не сложную регистрацию
    Показать сообщения:    

    Пропаганда - Белое платье через торрент
    Скачать бесплатно Пропаганда - Белое платье
    Пропаганда - Белое платье скачать торрент
    Пропаганда - Белое платье смотреть онлайн
    Cкачать фильм Пропаганда - Белое платье бесплатно
    Пропаганда - Белое платье скачать торрент в хорошем качестве
    Пропаганда - Белое платье смотреть онлайн бесплатно в хорошем качестве


    Вы не можете начинать темы
    Вы не можете отвечать на сообщения
    Вы не можете редактировать свои сообщения
    Вы не можете удалять свои сообщения
    Вы не можете голосовать в опросах
    Вы не можете прикреплять файлы к сообщениям
    Вы можете скачивать файлы