Ссылка на приватное зеркало нашего сайта всего за 1$. Внимание количество ограничено!!!

2 сезон

iTunes

1 сезон

1

2 сезон

2 сезон

iTunes

1 сезон

RePack

30

Ultimate

ВАЖНО

ИГРА 18+

pack

RePack

MK11
pack

Забери бонус

RePack

jed

!!Акция!!

Alien_Rage

RePack

fifa19

RePack

Assassins Creed: Odyssey

RePack

NEED FOR SPEED™ PAYBACK

4 сезон

9 сезон

Бесстыжие 9 сезон

Все сериалы

все сериалы на PB.wtf

RePack

FAR CRY 5
  

Последний звёздный боец / The Last Starfighter (Ник Касл) [1984 г., фантастика, боевик, приключения, семейный, Blu-Ray Remux 1080p] 2xAVO (Гаврилов, Марченко) pb.wtf

Последний звёздный боец через торрент pb.wtf

Размер: 25.44 GB | Добавлен: 1 год 7 мес. назад | Торрент скачан:2 раза
Скачать  

16-04-2019 20:25 Последний звёздный боец Скачать торрент  

Последний звёздный боец / The Last Starfighter
Год выпуска: 1984
Страна: США

Жанр: Фантастика, боевик, приключения, семейный

Продолжительность: 01:40:34

Перевод: Авторский (одноголосый)

Субтитры: Русские, английские

Режиссер: Ник Касл

rating

В ролях: Кей Катер, Дэн Мэйсон, Лэнс Гест, Дэн О`Херлихи, Катрин Мэри Стюарт, Барбара Боссон, Норман Сноу, Роберт Престон, Крис Хеберт, Джон О`Лири, Джордж МакДэниэл, Шарлин Нельсон

Описание: Алекс Роган — обычный парнишка, который живет в трейлерном парке со своими родителями, пытается попасть в престижный колледж и коротает вечера за случайно попавшим в их поселение игровым автоматом «Последний звездный боец». В очередной из тоскливых дней, после очередного отказа на получение денег на учебу от очередного банка и очередной ссоры со своей девушкой, Алексу удается набрать рекордное количество очков. В результате Алекс, при помощи рекрутера-инопланетянина по имени Центавр, попадает в самую гущу галактической войны между Райлосом и Ко-Данской Армадой...
Качество: Blu-Ray Remux 1080p
Формат: MKV
Видео кодек: VC-1
Аудио кодек: AC3, DTS
Видео: VC-1, 30695 Кбит/с, 1920x1080, 23.976 Кадр/с
Аудио#1: Русский, AC3, 2 ch, 384 Кбит/с - AVO (Гаврилов)
Аудио#2: Русский, AC3, 2 ch, 384 Кбит/с - AVO (Марченко)
Аудио#3: Английский, DTS, 6 ch, 3722 Кбит/сек
Аудио#4: Английский, AC3, 2 ch, 192 Кбит/с - комментарии режиссёра
Видео
Идентификатор : 1
Формат : VC-1
Профиль формата : Advanced@L3
Идентификатор кодека : V_MS/VFW/FOURCC / WVC1
Идентификатор кодека/Подсказка : Microsoft
Продолжительность : 1 ч. 40 м.
Ширина : 1920 пикселей
Высота : 1080 пикселей
Соотношение сторон : 16:9
Режим частоты кадров : Постоянный
Частота кадров : 23,976 (24000/1001) кадра/сек
Цветовое пространство : YUV
Субдискретизация насыщенности : 4:2:0
Битовая глубина : 8 бит
Тип развёртки : Прогрессивная
Метод сжатия : С потерями
Заголовок : VC-1
Язык : English
Default : Да
Forced : Нет

Аудио #1
Идентификатор : 2
Формат : AC-3
Формат/Информация : Audio Coding 3
Коммерческое название : Dolby Digital
Идентификатор кодека : A_AC3
Продолжительность : 1 ч. 40 м.
Вид битрейта : Постоянный
Битрейт : 384 Кбит/сек
Каналы : 2 канала
Channel layout : L R
Частота : 48,0 КГц
Частота кадров : 31,250 кадров/сек (1536 SPF)
Битовая глубина : 16 бит
Метод сжатия : С потерями
Размер потока : 277 Мбайт (1%)
Заголовок : AC3; 384 Kbps @ 2ch - (AVO) A.Gavrilov
Язык : Russian
ServiceKind/String : Complete Main
Default : Да
Forced : Нет

Аудио #2
Идентификатор : 3
Формат : AC-3
Формат/Информация : Audio Coding 3
Коммерческое название : Dolby Digital
Идентификатор кодека : A_AC3
Продолжительность : 1 ч. 40 м.
Вид битрейта : Постоянный
Битрейт : 384 Кбит/сек
Каналы : 2 канала
Channel layout : L R
Частота : 48,0 КГц
Частота кадров : 31,250 кадров/сек (1536 SPF)
Битовая глубина : 16 бит
Метод сжатия : С потерями
Размер потока : 277 Мбайт (1%)
Заголовок : AC3; 384 Kbps @ 2ch - (AVO) A.Marchenko
Язык : Russian
ServiceKind/String : Complete Main
Default : Нет
Forced : Нет

Аудио #3
Идентификатор : 4
Формат : DTS XLL
Формат/Информация : Digital Theater Systems
Коммерческое название : DTS-HD Master Audio
Идентификатор кодека : A_DTS
Продолжительность : 1 ч. 40 м.
Вид битрейта : Переменный
Каналы : 6 каналов
Channel layout : C L R Ls Rs LFE
Частота : 48,0 КГц
Частота кадров : 93,750 кадра/сек (512 SPF)
Битовая глубина : 24 бит
Метод сжатия : Без потерь
Заголовок : DTS-HDMA; 3722 Kbps @ 5.1 ch
Язык : English
Default : Нет
Forced : Нет

Аудио #4
Идентификатор : 5
Формат : AC-3
Формат/Информация : Audio Coding 3
Коммерческое название : Dolby Digital
Идентификатор кодека : A_AC3
Продолжительность : 1 ч. 40 м.
Вид битрейта : Постоянный
Битрейт : 192 Кбит/сек
Каналы : 2 канала
Channel layout : L R
Частота : 48,0 КГц
Частота кадров : 31,250 кадров/сек (1536 SPF)
Битовая глубина : 16 бит
Метод сжатия : С потерями
Размер потока : 138 Мбайт (1%)
Заголовок : AC3; 192 Kbps @ 2ch - (director's comments)
Язык : English
ServiceKind/String : Complete Main
Default : Нет
Forced : Нет

Текст #1
Идентификатор : 6
Формат : UTF-8
Идентификатор кодека : S_TEXT/UTF8
Идентификатор кодека/Информация : UTF-8 Plain Text
Заголовок : (Full)
Язык : Russian
Default : Нет
Forced : Нет

Текст #2
Идентификатор : 7
Формат : UTF-8
Идентификатор кодека : S_TEXT/UTF8
Идентификатор кодека/Информация : UTF-8 Plain Text
Заголовок : (Full_Hearing Impaired)
Язык : English
Default : Нет
Forced : Нет

Меню
00:00:00.000 : en:Main Titles
00:02:43.330 : en:A Sparklin' Day
00:08:12.200 : en:Sad Starfighter
00:12:31.334 : en:Record Breaker
00:18:23.269 : en:Recruited
00:22:31.559 : en:Stardrive
00:26:49.149 : en:What's Goin' On?
00:30:41.131 : en:The Ambassador
00:33:30.717 : en:Highly Irregular
00:38:23.927 : en:The Frontier
00:43:10.880 : en:Back on Earth
00:52:59.176 : en:Back to the Future
00:58:19.329 : en:Last Starfighter
01:09:18.863 : en:Hide and Seek
01:24:00.577 : en:The Command Ship
01:26:00.947 : en:An Old Friend
01:28:57.165 : en:About Alex
01:37:06.946 : en:End Titles

скриншот   скриншот   скриншот   скриншот   скриншот  

pb.wtf



Скачать Последний звёздный боец через торрент http://pic1.kartinco.top/images/12/k15dw.jpg Скачать фильм Последний звёздный боец через торрент бесплантно в хорошем качестве Описание: Алекс Роган — обычный парнишка, который живет в трейлерном парке со своими родителями, пытается попасть в престижный колледж и ... 10 10 1
Info! Золотая раздача, скачанное не засчитывается.
Торрент: Зарегистрирован [2019-04-16 20:25] · скачан: 2 раз
Статус: √ проверено
Размер: 25.44 GB
Как cкачать? Как скачать Последний звёздный боец через торрент | qTorrent

% Раздел Тема Автор DL S | L
Фильмы [HD 720p, 1080p] (Хороший звук DUB, MVO) [ 4.37 GB ] Последний звёздный боец / The Last Starfighter [1984 HDDVDRip 720p] Shmel Скачать
1 | 0

28-11-2019 20:33  

Отключить всю рекламу на сайте

16-04-2019 20:29 Последний звёздный боец Скачать торрент  

Топик был перенесен из форума Фильмы с авторской озвучкой в форум Фильмы (Blu-ray, BD-Remux, HDDVD)


bober100pb.wtf



    Дорогой пользователь! Огромная просьба, поблагодарите релизера, оцените раздачу и оставьте свои комментарий, если Вы скачали Последний звёздный боец через торрент бесплатно! Внесите свою лепту в развитие PiratBit!
    Комментировать посты могут только пользователи прошедшие не сложную регистрацию
    Показать сообщения:    

    Последний звёздный боец через торрент
    Скачать бесплатно Последний звёздный боец
    Последний звёздный боец скачать торрент
    Последний звёздный боец смотреть онлайн
    Cкачать фильм Последний звёздный боец бесплатно
    Последний звёздный боец скачать торрент в хорошем качестве
    Последний звёздный боец смотреть онлайн бесплатно в хорошем качестве


    Вы не можете начинать темы
    Вы не можете отвечать на сообщения
    Вы не можете редактировать свои сообщения
    Вы не можете удалять свои сообщения
    Вы не можете голосовать в опросах
    Вы не можете прикреплять файлы к сообщениям
    Вы можете скачивать файлы