новый адрес
Ссылка на приватное зеркало всего за 1$. Внимание количество ограничено!!!

iTunes

1+1

iTunes

мы

iTunes

1

iTunes

Чернобыль

iTunes

Ральф против интернета

Лицензия

ПШазам

Лицензия

Оно 2

Лицензия

30
pack

Вам бонус

ВАЖНО

!!Акция!!

Alien_RageХит недели

RePack

Resident Evil 21

ИГРА 18+

pack

RePack

jed

!!Акция!!

Alien_Rage

RePack

fifa19

RePack

Assassins Creed: Odyssey

RePack

NEED FOR SPEED™ PAYBACK

3 сезон

9 сезон

Бесстыжие 9 сезон

Все сериалы

все сериалы на PB.wtf

RePack

FAR CRY 5
Ребята, катастрофически не хватает 1900р. для оплаты серверов за Октябрь (всвязи с блокировками трафик упал в 3 раза), 1-2р., выручайте.
  

Звонок мертвецу / Abgeschnitten (Кристиан Альварт) [2018, ужасы, боевик, триллер, криминал, детектив, BDRip-AVC] DUB [iTunes] - ExKinoRay pb.wtf

Звонок мертвецу через торрент pb.wtf

Раздают: 43 [ 0 KB/s ]
Размер: 2.27 GB | Добавлен: 6 мес. назад | Торрент скачан:282 раза
Скачать  

17-04-2019 05:01 Звонок мертвецу Скачать торрент  

Название: Звонок мертвецу
Оригинальное название: Abgeschnitten
Год выпуска: 2018
Жанр: Ужасы, боевик, триллер, криминал, детектив
Режиссер: Кристиан Альварт
В ролях: Мориц Бляйбтрой, Ясна Фритци Бауэр, Ларс Айдингер, Фахри Огюн Ярдим, Энно Хессе, Кристиан Кухенбух, Урс Юккер, Барбара Пракопенка, Джой Мария Бэй, Ян Бюлов

Описание:
Судмедэксперт Пауль Херцфельд обнаруживает в голове чудовищно изуродованного трупа записку, на которой — телефонный номер с указанием: позвони и узнаешь судьбу своей похищенной дочери. На острове Хельголанд, отрезанном от суши страшным ураганом, Пауля поджидает еще один мертвец, а внутри — дальнейшие указания. И это только начало цепочки смертей… Психопат-похититель не прочь поиграть с жертвами в кошки-мышки. Тот, кто разгадает головоломку из тел, имеет шансы остаться в живых.


rating

Страна: Германия
Студия: Regina Ziegler Filmproduktion, Syrreal Entertainment, Warner Bros.
Продолжительность: 02:11:43
Перевод: Дублированный | iTunes
Субтитры: Английские

Формат: MKV
Качество: BDRip-AVC
Видео: MPEG-4 AVC, 1024x426 (2.40:1), 23.976 fps, 1720 Kbps, 0.164 bit/pixel
Звук:
Аудио 1: 48 kHz, AC3, 5.1, 384 Kbps | iTunes | RUS |
Аудио 2: 48 kHz, AC3, 5.1, 384 Kbps | original | GER
General
Unique ID : 250670148114097754923484365448391480763 (0xBC95507F40318E508DA140B7A6A4D5BB)
Complete name : D:\Abgeschnitten.2018.iTunes.BDRip.AVC.ExKinoRay.mkv
Format : Matroska
Format version : Version 2
File size : 2.27 GiB
Duration : 2 h 11 min
Overall bit rate : 2 467 kb/s
Movie name : Звонок мертвецу / Abgeschnitten (2018) from ExKinoRay
Encoded date : UTC 2019-06-02 03:19:17
Writing application : mkvmerge v5.6.0 ('Kenya Kane') built on May 27 2012 16:44:04
Writing library : libebml v1.2.3 + libmatroska v1.3.0

Video
ID : 1
Format : AVC
Format/Info : Advanced Video Codec
Format profile : High@L4.1
Format settings, CABAC : Yes
Format settings, ReFrames : 14 frames
Codec ID : V_MPEG4/ISO/AVC
Duration : 2 h 11 min
Bit rate : 1 697 kb/s
Width : 1 024 pixels
Height : 426 pixels
Display aspect ratio : 2.40:1
Frame rate mode : Constant
Frame rate : 23.976 (23976/1000) FPS
Color space : YUV
Chroma subsampling : 4:2:0
Bit depth : 8 bits
Scan type : Progressive
Bits/(Pixel*Frame) : 0.162
Stream size : 1.52 GiB (67%)
Title : Enigma
Writing library : x264 core 152 r2851 ba24899
Encoding settings : cabac=1 / ref=14 / deblock=1:-2:-2 / analyse=0x3:0x113 / me=umh / subme=10 / psy=1 / psy_rd=1.07:0.08 / mixed_ref=1 / me_range=32 / chroma_me=1 / trellis=2 / 8x8dct=1 / cqm=0 / deadzone=21,11 / fast_pskip=0 / chroma_qp_offset=-3 / threads=12 / lookahead_threads=3 / sliced_threads=0 / nr=0 / decimate=0 / interlaced=0 / bluray_compat=0 / constrained_intra=0 / bframes=12 / b_pyramid=2 / b_adapt=2 / b_bias=0 / direct=3 / weightb=1 / open_gop=0 / weightp=2 / keyint=240 / keyint_min=23 / scenecut=40 / intra_refresh=0 / rc=2pass / mbtree=0 / bitrate=1697 / ratetol=1.0 / qcomp=0.60 / qpmin=0 / qpmax=51 / qpstep=4 / cplxblur=20.0 / qblur=0.5 / ip_ratio=1.30 / pb_ratio=1.20 / aq=3:0.80
Language : English
Default : Yes
Forced : No
Color range : Limited
Color primaries : BT.709
Transfer characteristics : BT.709
Matrix coefficients : BT.709

Audio #1
ID : 2
Format : AC-3
Format/Info : Audio Coding 3
Mode extension : CM (complete main)
Format settings, Endianness : Big
Codec ID : A_AC3
Duration : 2 h 11 min
Bit rate mode : Constant
Bit rate : 384 kb/s
Channel(s) : 6 channels
Channel positions : Front: L C R, Side: L R, LFE
Sampling rate : 48.0 kHz
Frame rate : 31.250 FPS (1536 spf)
Compression mode : Lossy
Stream size : 362 MiB (16%)
Title : Dub (iTunes)
Language : Russian
Default : Yes
Forced : No

Audio #2
ID : 3
Format : AC-3
Format/Info : Audio Coding 3
Mode extension : CM (complete main)
Format settings, Endianness : Big
Codec ID : A_AC3
Duration : 2 h 11 min
Bit rate mode : Constant
Bit rate : 384 kb/s
Channel(s) : 6 channels
Channel positions : Front: L C R, Side: L R, LFE
Sampling rate : 48.0 kHz
Frame rate : 31.250 FPS (1536 spf)
Compression mode : Lossy
Stream size : 362 MiB (16%)
Language : German
Default : No
Forced : No

Text
ID : 4
Format : UTF-8
Codec ID : S_TEXT/UTF8
Codec ID/Info : UTF-8 Plain Text
Language : English
Default : No
Forced : No

Menu
00:00:00.000 : de:Глава 01
00:10:48.857 : de:Глава 02
00:23:43.922 : de:Глава 03
00:30:49.306 : de:Глава 04
00:42:14.282 : de:Глава 05
00:56:23.505 : de:Глава 06
01:06:20.560 : de:Глава 07
01:14:25.836 : de:Глава 08
01:27:30.370 : de:Глава 09
01:39:20.997 : de:Глава 10
01:49:11.044 : de:Глава 11
02:02:21.918 : de:Глава 12
Релиз от:

Автор релиза: pb.wtf



Скачать Звонок мертвецу через торрент http://img16.lostpic.net/2019/04/17/0ed83c897be369498f2c675ec293eb80.jpg Скачать фильм Звонок мертвецу через торрент бесплантно в хорошем качестве Описание: Судмедэксперт Пауль Херцфельд обнаруживает в голове чудовищно изуродованного трупа записку, на которой — телефонный номер с ... 10 10 15
Info! Золотая раздача, скачанное не засчитывается.
Торрент: Зарегистрирован [2019-06-02 17:18] · скачан: 282 раз
Статус: √ проверено
Размер: 2.27 GB
Как cкачать? Как скачать Звонок мертвецу через торрент | qTorrent

Отключить всю рекламу на сайте
    Дорогой пользователь! Огромная просьба, поблагодарите релизера, оцените раздачу и оставьте свои комментарий, если Вы скачали Звонок мертвецу через торрент бесплатно! Внесите свою лепту в развитие PiratBit!
    Комментировать посты могут только пользователи прошедшие не сложную регистрацию
    Показать сообщения:    

    Звонок мертвецу через торрент
    Скачать бесплатно Звонок мертвецу
    Звонок мертвецу скачать торрент
    Звонок мертвецу смотреть онлайн
    Cкачать фильм Звонок мертвецу бесплатно
    Звонок мертвецу скачать торрент в хорошем качестве
    Звонок мертвецу смотреть онлайн бесплатно в хорошем качестве


    Вы не можете начинать темы
    Вы не можете отвечать на сообщения
    Вы не можете редактировать свои сообщения
    Вы не можете удалять свои сообщения
    Вы не можете голосовать в опросах
    Вы не можете прикреплять файлы к сообщениям
    Вы можете скачивать файлы