MEGA SALE -50% FORZA HORIZON 4 ULTIMATE+ВСЕ DLC+ОНЛАЙН всего за 599р. 299 руб. (супер цена). Внимание количество ограничено!!!

iTunes

1+1

iTunes

мы

iTunes

1

iTunes

Чернобыль

1 сезон

Ральф против интернета

Лицензия

ПШазам

Лицензия

Игра престолов

Лицензия

30
pack

ВАЖНО

!!Акция!!

Alien_RageХит недели

RePack

Resident Evil 21

ИГРА 18+

pack

RePack

Metro:Exodus

!!Акция!!

Alien_Rage

RePack

fifa19

RePack

Assassins Creed: Odyssey

RePack

NEED FOR SPEED™ PAYBACK

3 сезон

9 сезон

Бесстыжие 9 сезон

Все сериалы

все сериалы на PB.wtf

RePack

FAR CRY 5
Ребята, катастрофически не хватает 7730р. для оплаты серверов за ИЮЛЬ (всвязи с блокировками трафик упал в 3 раза), 1-2р., выручайте.
  

Йон Рабе / John Rabe (Флориан Галленбергер) [2009, драма, военный, биография, история, BDRip 720p by msltel] VO pb.wtf

Йон Рабе через торрент pb.wtf

Раздают: 1 [ 0 KB/s ]
Размер: 5.72 GB | Добавлен: 4 мес. 4 д. назад | Торрент скачан:39 раз
Скачать  

17-04-2019 06:31 Йон Рабе Скачать торрент  

Название: Йон Рабе
Оригинальное название: John Rabe
Год выпуска: 2009
Страна: Франция, Китай, Германия
Жанр: драма, военный, биография, история
Продолжительность: 02:14:25
Перевод: закадровый одноголосый

Режиссер: Флориан Галленбергер
В ролях: Ульрих Тукур, Даниэль Брюль, Стив Бушеми, Анн Консиньи, Дагмар Манцель, Цзинчу Чжан, Тэруюки Кагава, Матиас Херрманн, Тэтта Сугимото, Акира Эмото, Шон Лоутон, Кристиан Родска, Готтфрид Йон, Арата Иура

О фильме: В 1911—1938 годах Йон Рабе был сотрудником компании Siemens China Co. (филиал компании Siemens в Китае), став в 1931 году её генеральным директором. Член национал-социалистической немецкой рабочей партии. Во время его нахождения в Нанкине в город вошли японские войска, учинившие беспощадную расправу над населением. Рабе выступил против зверств японских солдат. Организованная при его непосредственном участии Нанкинская зона безопасности спасла не менее 200 000 китайцев в ходе Нанкинской резни... Википедия.



Качество: BDRip 720p
Формат: MKV
Видео: MPEG-4 AVC, 5197 Кбит/с, 1280x546, 24.000 кадр/с
Аудио 1: русский, AC3, 448 kbps, 6 ch, 48 kHz [закадровый одноголосый, Laids]
Аудио 2: немецкий, AC3, 448 kbps, 6 ch, 48 kHz [оригинал]
Субтитры 1: русские (omikami)
Субтитры 2: английские
Главы/чаптеры
Общее
Уникальный идентификатор : 211431045542213019764064459657276982788 (0x9F10235FA6EEDB669F685C6BF7A68604)
Полное имя : D:\Video\Джон Рабе.2009.BDRip 720p by msltel.mkv
Формат : Matroska
Версия формата : Version 4
Размер файла : 5,72 Гбайт
Продолжительность : 2 ч. 14 м.
Общий поток : 6095 Кбит/сек
Название фильма : Rip by msltel
Дата кодирования : UTC 2019-04-17 02:24:17
Программа кодирования : mkvmerge v8.2.0 ('World of Adventure') 64bit
Библиотека кодирования : libebml v1.3.1 + libmatroska v1.4.2

Видео
Идентификатор : 1
Формат : AVC
Формат/Информация : Advanced Video Codec
Профиль формата : High@L4.1
Настройки формата : CABAC / 9 Ref Frames
Параметр CABAC формата : Да
Параметр RefFrames формата : 9 кадров
Идентификатор кодека : V_MPEG4/ISO/AVC
Продолжительность : 2 ч. 14 м.
Битрейт : 5197 Кбит/сек
Ширина : 1280 пикселей
Высота : 546 пикселей
Соотношение сторон : 2,35:1
Режим частоты кадров : Постоянный
Частота кадров : 24,000 кадра/сек
Цветовое пространство : YUV
Субдискретизация насыщенности : 4:2:0
Битовая глубина : 8 бит
Тип развёртки : Прогрессивная
Бит/(Пиксели*Кадры) : 0.310
Размер потока : 4,88 Гбайт (85%)
Библиотека кодирования : x264 core 157 r2935 545de2f
Настройки программы : cabac=1 / ref=9 / deblock=1:-2:-2 / analyse=0x3:0x113 / me=umh / subme=11 / psy=1 / psy_rd=1.00:0.15 / mixed_ref=1 / me_range=32 / chroma_me=1 / trellis=2 / 8x8dct=1 / cqm=0 / deadzone=21,11 / fast_pskip=0 / chroma_qp_offset=-3 / threads=6 / lookahead_threads=1 / sliced_threads=0 / nr=0 / decimate=1 / interlaced=0 / bluray_compat=0 / constrained_intra=0 / bframes=10 / b_pyramid=2 / b_adapt=2 / b_bias=0 / direct=1 / weightb=1 / open_gop=0 / weightp=2 / keyint=230 / keyint_min=23 / scenecut=40 / intra_refresh=0 / rc_lookahead=40 / rc=crf / mbtree=1 / crf=19.0 / qcomp=0.60 / qpmin=0 / qpmax=69 / qpstep=4 / vbv_maxrate=50000 / vbv_bufsize=62500 / crf_max=0.0 / nal_hrd=none / filler=0 / ip_ratio=1.40 / aq=1:1.00
Язык : German
Default : Да
Forced : Нет

Аудио #1
Идентификатор : 2
Формат : AC-3
Формат/Информация : Audio Coding 3
Коммерческое название : Dolby Digital
Идентификатор кодека : A_AC3
Продолжительность : 2 ч. 14 м.
Вид битрейта : Постоянный
Битрейт : 448 Кбит/сек
Каналы : 6 каналов
Channel layout : L R C LFE Ls Rs
Частота : 48,0 КГц
Частота кадров : 31,250 кадров/сек (1536 SPF)
Битовая глубина : 16 бит
Метод сжатия : С потерями
Размер потока : 431 Мбайт (7%)
Заголовок : Laids
Язык : Russian
ServiceKind/String : Complete Main
Default : Да
Forced : Нет

Аудио #2
Идентификатор : 3
Формат : AC-3
Формат/Информация : Audio Coding 3
Коммерческое название : Dolby Digital
Идентификатор кодека : A_AC3
Продолжительность : 2 ч. 14 м.
Вид битрейта : Постоянный
Битрейт : 448 Кбит/сек
Каналы : 6 каналов
Channel layout : L R C LFE Ls Rs
Частота : 48,0 КГц
Частота кадров : 31,250 кадров/сек (1536 SPF)
Битовая глубина : 16 бит
Метод сжатия : С потерями
Размер потока : 431 Мбайт (7%)
Заголовок : original
Язык : German
ServiceKind/String : Complete Main
Default : Нет
Forced : Нет

Текст #1
Идентификатор : 4
Формат : UTF-8
Идентификатор кодека : S_TEXT/UTF8
Идентификатор кодека/Информация : UTF-8 Plain Text
Продолжительность : 2 ч. 6 м.
Битрейт : 75 бит/сек
ElementCount : 1310
Размер потока : 70,2 Кбайт (0%)
Заголовок : русские omikami
Язык : Russian
Default : Нет
Forced : Нет

Текст #2
Идентификатор : 5
Формат : UTF-8
Идентификатор кодека : S_TEXT/UTF8
Идентификатор кодека/Информация : UTF-8 Plain Text
Продолжительность : 2 ч. 7 м.
Битрейт : 20 бит/сек
ElementCount : 655
Размер потока : 19,4 Кбайт (0%)
Заголовок : английские
Язык : English
Default : Нет
Forced : Нет

Меню
00:00:00.000 : :Chapter 1
00:07:39.333 : :Chapter 2
00:16:34.916 : :Chapter 3
00:26:00.583 : :Chapter 4
00:42:43.750 : :Chapter 5
00:53:33.166 : :Chapter 6
01:04:04.458 : :Chapter 7
01:25:38.207 : :Chapter 8
01:44:06.958 : :Chapter 9
01:52:23.458 : :Chapter 10
02:01:33.791 : :Chapter 11
02:08:30.791 : :Chapter 12
pb.wtf



Скачать Йон Рабе через торрент https://d.radikal.ru/d29/1904/d2/cab2afb62d34.png Скачать фильм Йон Рабе через торрент бесплантно в хорошем качестве О фильме: В 1911—1938 годах Йон Рабе был сотрудником компании Siemens China Co. (филиал компании Siemens в Китае), став в 1931 году её ... 5.5 10 2
Торрент: Зарегистрирован [2019-04-17 06:31] · скачан: 39 раз
Статус: √ проверено
Размер: 5.72 GB
Как cкачать? Как скачать Йон Рабе через торрент | qTorrent

% Раздел Тема Автор DL S | L
Фильмы [HD 720p, 1080p] (Звук Cam, VO, DVO) [ 16.66 GB ] Йон Рабе / John Rabe [2009 военный биография история BDRip 1080p by msltel] VO msltel Скачать
1 | 0


>> Регистрируемся здесь <<






Отзывы и комментарии о схеме читаем и пишем здесь: ---> Отзывы и комментарии о схеме

Новые благодарочки в телеграм довольных пользователей:
скриншот   скриншот   скриншот   скриншот   скриншот
    Дорогой пользователь! Огромная просьба, поблагодарите релизера, оцените раздачу и оставьте свои комментарий, если Вы скачали Йон Рабе через торрент бесплатно! Внесите свою лепту в развитие PiratBit!
    Комментировать посты могут только пользователи прошедшие не сложную регистрацию
    Показать сообщения:    

    Йон Рабе через торрент
    Скачать бесплатно Йон Рабе
    Йон Рабе скачать торрент
    Йон Рабе смотреть онлайн
    Cкачать фильм Йон Рабе бесплатно
    Йон Рабе скачать торрент в хорошем качестве
    Йон Рабе смотреть онлайн бесплатно в хорошем качестве


    Вы не можете начинать темы
    Вы не можете отвечать на сообщения
    Вы не можете редактировать свои сообщения
    Вы не можете удалять свои сообщения
    Вы не можете голосовать в опросах
    Вы не можете прикреплять файлы к сообщениям
    Вы можете скачивать файлы