новый адрес
Ссылка на приватное зеркало всего за 1$. Внимание количество ограничено!!!

iTunes

1+1

iTunes

мы

WEB-DL

1

iTunes

Чернобыль

iTunes

Ральф против интернета

Лицензия

ПШазам

Лицензия

Оно 2

Лицензия

30
pack

Вам бонус

ВАЖНО

!!Акция!!

Alien_RageХит недели

RePack

Resident Evil 21

ИГРА 18+

pack

RePack

jed

!!Акция!!

Alien_Rage

RePack

fifa19

RePack

Assassins Creed: Odyssey

RePack

NEED FOR SPEED™ PAYBACK

3 сезон

9 сезон

Бесстыжие 9 сезон

Все сериалы

все сериалы на PB.wtf

RePack

FAR CRY 5
Ребята, катастрофически не хватает 1900р. для оплаты серверов за Октябрь (всвязи с блокировками трафик упал в 3 раза), 1-2р., выручайте.
  

Звонок мертвецу / Abgeschnitten (Кристиан Альварт) [2018, ужасы, боевик, триллер, криминал, детектив, WEB-DLRip] DUB [iTunes] pb.wtf

Звонок мертвецу через торрент pb.wtf

Раздают: 3 [ 0 KB/s ]
Размер: 2.18 GB | Добавлен: 7 мес. назад | Торрент скачан:422 раза
Скачать  

17-04-2019 20:17 Звонок мертвецу Скачать торрент  

Звонок мертвецу / Abgeschnitten Год выпуска: 2018
Страна: Германия
Жанр: ужасы, боевик, триллер, криминал, детектив
Продолжительность: 02:11:37
Перевод: Дублированный | iTunes
Субтитры: отсутствуют

Режиссер: Кристиан Альварт

rating

В ролях:

Мориц Бляйбтрой, Ясна Фритци Бауэр, Ларс Айдингер, Фахри Огюн Ярдим, Энно Хессе, Кристиан Кухенбух, Урс Юккер, Барбара Пракопенка, Джой Мария Бэй, Ян Бюлов

Описание:

Судмедэксперт Пауль Херцфельд обнаруживает в голове чудовищно изуродованного трупа записку, на которой - телефонный номер с указанием: позвони и узнаешь судьбу своей похищенной дочери. На острове Хельголанд, отрезанном от суши страшным ураганом, Пауля поджидает еще один мертвец, а внутри - дальнейшие указания. И это только начало цепочки смертей... Психопат-похититель не прочь поиграть с жертвами в кошки-мышки. Тот, кто разгадает головоломку из тел, имеет шансы остаться в живых.

Качество: WEB-DLRip
Формат: AVI

Видео: 720x304 (2.37:1), 24.000 fps, XviD build 73 ~1976 kbps avg, 0.38 bit/pixel
Аудио: 48 kHz, AC3 Dolby Digital, 3/2 (L,C,R,l,r) + LFE ch, ~384 kbps
скриншот  скриншот  скриншот  скриншот  

Формат : AVI
Формат/Информация : Audio Video Interleave
Профиль формата : OpenDML
Размер файла : 2,18 Гбайт
Продолжительность : 2 ч. 11 м.
Общий поток : 2372 Кбит/сек
Программа кодирования : VirtualDubMod 1.5.10.3
Библиотека кодирования : VirtualDubMod build 2550/release

Видео
Идентификатор : 0
Формат : MPEG-4 Visual
Профиль формата : Advanced Simple@L5
Настройки формата : BVOP1 / Custom Matrix
Параметр BVOP формата : 1
Параметр QPel формата : Нет
Параметр GMC формата : Без точки перехода
Параметр матрицы формата : Выборочная
Идентификатор кодека : XVID
Идентификатор кодека/Подсказка : XviD
Продолжительность : 2 ч. 11 м.
Битрейт : 1976 Кбит/сек
Ширина : 720 пикселей
Высота : 304 пикселя
Соотношение сторон : 2,35:1
Частота кадров : 24,000 кадра/сек
Цветовое пространство : YUV
Субдискретизация насыщенности : 4:2:0
Битовая глубина : 8 бит
Тип развёртки : Прогрессивная
Метод сжатия : С потерями
Бит/(Пиксели*Кадры) : 0.376
Размер потока : 1,82 Гбайт (83%)
Библиотека кодирования : XviD 73

Аудио
Идентификатор : 1
Формат : AC-3
Формат/Информация : Audio Coding 3
Коммерческое название : Dolby Digital
Идентификатор кодека : 2000
Продолжительность : 2 ч. 11 м.
Вид битрейта : Постоянный
Битрейт : 384 Кбит/сек
Каналы : 6 каналов
Channel layout : L R C LFE Ls Rs
Частота : 48,0 КГц
Частота кадров : 31,250 кадров/сек (1536 SPF)
Битовая глубина : 16 бит
Метод сжатия : С потерями
Размер потока : 362 Мбайт (16%)
Выравнивание : Разделение по промежуткам
Продолжительность промежутка : 42 мс. (1,00 видеокадр)
Время предзагрузки промежутка : 500 мс.

pb.wtf



Скачать Звонок мертвецу через торрент https://i4.imageban.ru/out/2019/04/17/a44025570caaefd963fb688304765d77.jpg Скачать фильм Звонок мертвецу через торрент бесплантно в хорошем качестве Описание: Судмедэксперт Пауль Херцфельд обнаруживает в голове чудовищно изуродованного трупа записку, на которой - телефонный номер с ... 10 10 7
Info! Золотая раздача, скачанное не засчитывается.
Торрент: Зарегистрирован [2019-04-17 20:17] · скачан: 422 раз
Статус: √ проверено
Размер: 2.18 GB
Как cкачать? Как скачать Звонок мертвецу через торрент | qTorrent

% Раздел Тема Автор DL S | L
Фильмы 2018 [DVDrip, WEB-DLRip, HDrip] (DUB, MVO) [ 2.12 GB ] Звонок мертвецу / Abgeschnitten [2018 BDRip] - Twi7ter Скачать
19 | 0
Фильмы 2018 [DVDrip, WEB-DLRip, HDrip] (DUB, MVO) [ 1.46 GB ] Звонок мертвецу / Abgeschnitten [2018 BDRip] - Twi7ter Скачать
12 | 1
Фильмы [HD 720p, 1080p] (Хороший звук DUB, MVO) [ 6 GB ] Звонок мертвецу / Abgeschnitten [2018 BDRip 720p] bober100 Скачать
3 | 0
Фильмы [HD 720p, 1080p] (Хороший звук DUB, MVO) [ 12.41 GB ] Звонок мертвецу / Abgeschnitten [2018 BDRip 1080p] bober100 Скачать
1 | 0
Фильмы 2018 [DVDrip, WEB-DLRip, HDrip] (DUB, MVO) [ 1.46 GB ] Звонок мертвецу / Abgeschnitten [2018 WEB-DLRip] bober100 Скачать
5 | 0
Фильмы 2018 [DVDrip, WEB-DLRip, HDrip] (DUB, MVO) [ 2.27 GB ] Звонок мертвецу / Abgeschnitten [2018 BDRip-AVC] - ExKinoRay Enigma2010 Скачать
25 | 0
Фильмы (WEB-DL 720p, 1080p) [ 4.52 GB ] Звонок мертвецу / Abgeschnitten [2018 WEB-DL 1080p] bober100 Скачать
3 | 0

28-11-2019 20:33  

Отключить всю рекламу на сайте

18-04-2019 13:55 Звонок мертвецу Скачать торрент  

прикольный фильмец,в смысле нормальный!pb.wtf



01-05-2019 16:19 Звонок мертвецу Скачать торрент  

Наитупейший фильм, всё по шаблонам. Зря потраченное времяpb.wtf



    Дорогой пользователь! Огромная просьба, поблагодарите релизера, оцените раздачу и оставьте свои комментарий, если Вы скачали Звонок мертвецу через торрент бесплатно! Внесите свою лепту в развитие PiratBit!
    Комментировать посты могут только пользователи прошедшие не сложную регистрацию
    Показать сообщения:    

    Звонок мертвецу через торрент
    Скачать бесплатно Звонок мертвецу
    Звонок мертвецу скачать торрент
    Звонок мертвецу смотреть онлайн
    Cкачать фильм Звонок мертвецу бесплатно
    Звонок мертвецу скачать торрент в хорошем качестве
    Звонок мертвецу смотреть онлайн бесплатно в хорошем качестве


    Вы не можете начинать темы
    Вы не можете отвечать на сообщения
    Вы не можете редактировать свои сообщения
    Вы не можете удалять свои сообщения
    Вы не можете голосовать в опросах
    Вы не можете прикреплять файлы к сообщениям
    Вы можете скачивать файлы