Ссылка на приватное зеркало нашего сайта всего за 1$. Внимание количество ограничено!!!

2 сезон

iTunes

iTunes

1

iTunes

iTunes

iTunes

WEBRip

iTunes

30
pack

Новость дня

ВАЖНО

!!Акция!!

Alien_RageХит недели

RePack

Horizon Zero Dawn

ИГРА 18+

pack

RePack

jed

!!Акция!!

Alien_Rage

RePack

fifa19

RePack

Assassins Creed: Odyssey

RePack

NEED FOR SPEED™ PAYBACK

4 сезон

9 сезон

Бесстыжие 9 сезон

Все сериалы

все сериалы на PB.wtf

RePack

FAR CRY 5
  

Горячие стволы / The Blazing Cannons (Марк Нойс, Бен Шокли) [2017, Боевик, триллер, комедия, WEB-DL 720p] MVO ["Синема УС"] pb.wtf

Горячие стволы через торрент pb.wtf

Размер: 3.25 GB | Добавлен: 1 год 5 мес. назад | Торрент скачан:42 раза
Скачать  

17-04-2019 21:17 Горячие стволы Скачать торрент  

Горячие стволы / The Blazing CannonsГод выпуска: 2017
Страна: Великобритания
Жанр: Боевик, триллер, комедия
Продолжительность: 01:22:17
Перевод: Любительский (многоголосый) | "Синема УС"
Субтитры: отсутствуют

Режиссер: Марк Нойс, Бен Шокли

rating

В ролях: Марк Нойс, Бен Шокли, Майкл Кросс, Киран О'Куигли, Шон Уильямсон, Стивен Арнольд, Джо Иган, Рэй Гриффитс, Стив Перри, Ребекка Эдвардс

Описание: Когда в Лондоне появляется серийный убийца, глава полиции решает поручить его поимку двум своим лучшим детективам - Саксону и Стилу. Несмотря на свой эксцентричный внешний вид и любовь к боевикам 70-х, эта парочка знает свою работу и подходит к ней с пугающей методичностью.

Качество: WEB-DL 720p
Формат: MKV

Видео: h.264,5 270 Кбит/с, 1280x720
Аудио#1: Русский, (AC3, 2 ch, 384 Кбит/с)
скриншот  скриншот  скриншот  

Общее
Уникальный идентификатор : 236538004114639306149541463190074345192 (0xB1F39000B881EBFEA44E04ACC6C8C6E8)
Полное имя : D:\The.Blazing.Cannons.2O19.P.WEB-DL.72Op.mkv
Формат : Matroska
Версия формата : Version 2
Размер файла : 3,25 Гбайт
Продолжительность : 1 ч. 22 м.
Режим общего битрейта : Переменный
Общий поток : 5656 Кбит/сек
Дата кодирования : UTC 2019-04-17 06:29:17
Программа кодирования : mkvmerge v8.3.0 ('Over the Horizon') 64bit
Библиотека кодирования : libebml v1.3.1 + libmatroska v1.4.2

Видео
Идентификатор : 1
Формат : AVC
Формат/Информация : Advanced Video Codec
Профиль формата : High@L4.1
Параметр CABAC формата : Да
Параметр RefFrames формата : 4 кадра
Идентификатор кодека : V_MPEG4/ISO/AVC
Продолжительность : 1 ч. 22 м.
Вид битрейта : Переменный
Битрейт : 5270 Кбит/сек
Максимальный битрейт : 6000 Кбит/сек
Ширина : 1280 пикселей
Высота : 720 пикселей
Соотношение сторон : 16:9
Режим частоты кадров : Постоянный
Частота кадров : 23,976 (24000/1001) кадра/сек
Стандарт вещания : Component
Цветовое пространство : YUV
Субдискретизация насыщенности : 4:2:0
Битовая глубина : 8 бит
Тип развёртки : Прогрессивная
Бит/(Пиксели*Кадры) : 0.233
Размер потока : 2,97 Гбайт (91%)
Default : Да
Forced : Нет
Цветовой диапазон : Limited
Основные цвета : BT.709
Характеристики трансфера : BT.709
Коэффициенты матрицы : BT.709

Аудио
Идентификатор : 2
Формат : AC-3
Формат/Информация : Audio Coding 3
Расширение режима : CM (complete main)
Параметр Endianness формата : Big
Идентификатор кодека : A_AC3
Продолжительность : 1 ч. 22 м.
Вид битрейта : Постоянный
Битрейт : 384 Кбит/сек
Каналы : 2 канала
Расположение каналов : Front: L R
Частота : 48,0 КГц
Частота кадров : 31,250 кадров/сек (1536 spf)
Метод сжатия : С потерями
Размер потока : 226 Мбайт (7%)
Default : Да
Forced : Нет

pb.wtf



Скачать Горячие стволы через торрент https://c.radikal.ru/c39/1904/f5/409976c5788b.jpg Скачать фильм Горячие стволы через торрент бесплантно в хорошем качестве Описание: Когда в Лондоне появляется серийный убийца, глава полиции решает поручить его поимку двум своим лучшим детективам - Саксону и ... 10 10 4
Торрент: Зарегистрирован [2019-04-17 21:17] · скачан: 42 раз
Статус: T временная
Размер: 3.25 GB
Как cкачать? Как скачать Горячие стволы через торрент | qTorrent

% Раздел Тема Автор DL S | L
T Фильмы (мультфильмы) cо спонсором показа (Новинки AVI/MKV) [ 1.37 GB ] Горячие стволы / The Blazing Cannons [2017 WEB-DLRip] MVO ["Синема УС"] bober100 Скачать
1 | 0

28-11-2019 20:33  

Отключить всю рекламу на сайте

    Дорогой пользователь! Огромная просьба, поблагодарите релизера, оцените раздачу и оставьте свои комментарий, если Вы скачали Горячие стволы через торрент бесплатно! Внесите свою лепту в развитие PiratBit!
    Комментировать посты могут только пользователи прошедшие не сложную регистрацию
    Показать сообщения:    

    Горячие стволы через торрент
    Скачать бесплатно Горячие стволы
    Горячие стволы скачать торрент
    Горячие стволы смотреть онлайн
    Cкачать фильм Горячие стволы бесплатно
    Горячие стволы скачать торрент в хорошем качестве
    Горячие стволы смотреть онлайн бесплатно в хорошем качестве


    Вы не можете начинать темы
    Вы не можете отвечать на сообщения
    Вы не можете редактировать свои сообщения
    Вы не можете удалять свои сообщения
    Вы не можете голосовать в опросах
    Вы не можете прикреплять файлы к сообщениям
    Вы можете скачивать файлы