Ссылка на приватное зеркало всего за 1$. Внимание количество ограничено!!!

OK

1+1

iTunes

мы

OK

1

WEB-DLRip

Джокер

Пифагор

Ведьмак / The Witcher сериал

iTunes

ПШазам

ОК

Оно 2

iTunes

30
pack

Вам бонус

ВАЖНО

!!Акция!!

Alien_RageХит недели

RePack

Resident Evil 21

ИГРА 18+

pack

RePack

jed

RePack

fifa19

RePack

Assassins Creed: Odyssey

RePack

NEED FOR SPEED™ PAYBACK

4 сезон

9 сезон

Бесстыжие 9 сезон

Все сериалы

все сериалы на PB.wtf

RePack

FAR CRY 5
  

Имена питомцев / Pet Names (Кэрол Брандт) [2018, драма, WEB-DL 720p] MVO ["Синема УС"] pb.wtf

Имена питомцев через торрент pb.wtf

Размер: 2.51 GB | Добавлен: 9 мес. назад | Торрент скачан:1 раз
Скачать  

18-04-2019 03:54 Имена питомцев Скачать торрент  

Имена питомцев / Pet NamesГод выпуска: 2018
Страна: США
Жанр: драма
Продолжительность: 01:14:53
Перевод: Любительский (многоголосый) | "Синема УС"
Субтитры: отсутствуют

Режиссер: Кэрол Брандт

rating

В ролях: Джейк Брэдли, Мэри Чуй, Рене Круз, Мередит Джонстон, Челси Нормент, Стейси Приход, Кристина Сео, Лилиана Винкворт

Описание: Пытаясь сбежать от нерешенных проблем, бросившая аспирантуру затворница и её бывший парень отправляются в спонтанный поход в поисках уединения.

Качество: WEB-DL 720p
Формат: MKV

Видео: h.264 4 420 Кбит/с, 960x720
Аудио#1: Русский, (AC3, 2 ch, 384 Кбит/с)
скриншот  скриншот  скриншот  

Общее
Уникальный идентификатор : 226770577570529547749842214968223138838 (0xAA9A6CB198B2827CAC8A7B4D15E90416)
Полное имя : D:\Pet.Names.2018.P.WEB-DL.72Op.mkv
Формат : Matroska
Версия формата : Version 2
Размер файла : 2,51 Гбайт
Продолжительность : 1 ч. 14 м.
Режим общего битрейта : Переменный
Общий поток : 4805 Кбит/сек
Дата кодирования : UTC 2019-04-17 08:29:43
Программа кодирования : mkvmerge v8.3.0 ('Over the Horizon') 64bit
Библиотека кодирования : libebml v1.3.1 + libmatroska v1.4.2

Видео
Идентификатор : 1
Формат : AVC
Формат/Информация : Advanced Video Codec
Профиль формата : High@L4.1
Параметр CABAC формата : Да
Параметр RefFrames формата : 4 кадра
Параметр GOP формата : M=1, N=2
Идентификатор кодека : V_MPEG4/ISO/AVC
Продолжительность : 1 ч. 14 м.
Вид битрейта : Переменный
Битрейт : 4420 Кбит/сек
Максимальный битрейт : 5000 Кбит/сек
Ширина : 960 пикселей
Высота : 720 пикселей
Соотношение сторон : 4:3
Режим частоты кадров : Постоянный
Частота кадров : 23,976 (24000/1001) кадра/сек
Стандарт вещания : Component
Цветовое пространство : YUV
Субдискретизация насыщенности : 4:2:0
Битовая глубина : 8 бит
Тип развёртки : Прогрессивная
Бит/(Пиксели*Кадры) : 0.261
Размер потока : 2,26 Гбайт (90%)
Default : Да
Forced : Нет
Цветовой диапазон : Limited
Основные цвета : BT.709
Характеристики трансфера : BT.709
Коэффициенты матрицы : BT.709

Аудио
Идентификатор : 2
Формат : AC-3
Формат/Информация : Audio Coding 3
Расширение режима : CM (complete main)
Параметр Endianness формата : Big
Идентификатор кодека : A_AC3
Продолжительность : 1 ч. 14 м.
Вид битрейта : Постоянный
Битрейт : 384 Кбит/сек
Каналы : 2 канала
Расположение каналов : Front: L R
Частота : 48,0 КГц
Частота кадров : 31,250 кадров/сек (1536 spf)
Метод сжатия : С потерями
Размер потока : 206 Мбайт (8%)
Default : Да
Forced : Нет

pb.wtf



Скачать Имена питомцев через торрент https://b.radikal.ru/b37/1904/b1/8b0d271a33d1.jpg Скачать фильм Имена питомцев через торрент бесплантно в хорошем качестве Описание: Пытаясь сбежать от нерешенных проблем, бросившая аспирантуру затворница и её бывший парень отправляются в спонтанный поход в ... 10 10 2
Торрент: Зарегистрирован [2019-04-18 03:54] · скачан: 1 раз
Статус: T временная
Размер: 2.51 GB
Как cкачать? Как скачать Имена питомцев через торрент | qTorrent

% Раздел Тема Автор DL S | L
T Фильмы (мультфильмы) cо спонсором показа (Новинки AVI/MKV) [ 1.37 GB ] Имена питомцев / Pet Names [2018 WEB-DLRip] MVO ["Синема УС"] bober100 Скачать
1 | 0

28-11-2019 20:33  

Отключить всю рекламу на сайте

    Дорогой пользователь! Огромная просьба, поблагодарите релизера, оцените раздачу и оставьте свои комментарий, если Вы скачали Имена питомцев через торрент бесплатно! Внесите свою лепту в развитие PiratBit!
    Комментировать посты могут только пользователи прошедшие не сложную регистрацию
    Показать сообщения:    

    Имена питомцев через торрент
    Скачать бесплатно Имена питомцев
    Имена питомцев скачать торрент
    Имена питомцев смотреть онлайн
    Cкачать фильм Имена питомцев бесплатно
    Имена питомцев скачать торрент в хорошем качестве
    Имена питомцев смотреть онлайн бесплатно в хорошем качестве


    Вы не можете начинать темы
    Вы не можете отвечать на сообщения
    Вы не можете редактировать свои сообщения
    Вы не можете удалять свои сообщения
    Вы не можете голосовать в опросах
    Вы не можете прикреплять файлы к сообщениям
    Вы можете скачивать файлы