Ссылка на приватное зеркало всего за 1$. Внимание количество ограничено!!!

OK

1+1

iTunes

мы

OK

1

WEB-DLRip

Джокер

Пифагор

Ведьмак / The Witcher сериал

iTunes

ПШазам

ОК

Оно 2

iTunes

30
pack

Вам бонус

ВАЖНО

!!Акция!!

Alien_RageХит недели

RePack

Resident Evil 21

ИГРА 18+

pack

RePack

jed

RePack

fifa19

RePack

Assassins Creed: Odyssey

RePack

NEED FOR SPEED™ PAYBACK

4 сезон

9 сезон

Бесстыжие 9 сезон

Все сериалы

все сериалы на PB.wtf

RePack

FAR CRY 5
  

Суззанна: Похороненная заживо / Suzzanna: Bernapas dalam Kubur (Роки Сорайя, Ангджи Умбара) [2018, ужасы, триллер, драма, комедия, WEB-DL 720p] MVO ["Синема УС"] pb.wtf

Суззанна: Похороненная заживо через торрент pb.wtf

Размер: 4.97 GB | Добавлен: 9 мес. назад | Торрент скачан:35 раз
Скачать  

18-04-2019 04:08 Суззанна: Похороненная заживо Скачать торрент  

Суззанна: Похороненная заживо / Suzzanna: Bernapas dalam Kubur Год выпуска: 2018
Страна: Индонезия
Жанр: ужасы, триллер, драма, комедия
Продолжительность: 02:06:38
Перевод: Любительский (многоголосый) | "Синема УС"
Субтитры: отсутствуют

Режиссер: Роки Сорайя, Ангджи Умбара

rating

В ролях:

Луна Майя, Херьюнот Али, Т. Рифну Викана, Верди Солайман, Кики Нарендра, Алекс Аббад, Асри Велас, Опи Кумис, Энс Багус, Норман Р. Акьювен

Описание:

Суззанна счастлива - любящий муж, большой дом и вскоре ожидается пополнение в семействе. Но когда супруг отправляется на несколько дней в командировку, недовольные размером зарплаты сотрудники с его завода решают ограбить дом. Суззанна не должна была быть дома, но женщина сталкивается со злоумышленниками, что приводит к трагедии - один из грабителей случайно втыкает ей пику в живот. Пытаясь замести следы, ещё живую женщину закапывают во дворе собственного дома.

Качество: WEB-DL 720p
Формат: MKV

Видео: h.264, 5 227 Кбит/с, 1280x720
Аудио: Русский, (AC3, 2 ch, 384 Кбит/с)
скриншот  скриншот  скриншот  

Общее
Уникальный идентификатор : 183989408442764269210466429555988294327 (0x8A6B1234B94AF32E914A253D0794EAB7)
Полное имя : D:\Suzzanna.Bernapas.dalam.Kubur.2O19.P.WEB-DL.72Op.mkv
Формат : Matroska
Версия формата : Version 2
Размер файла : 4,97 Гбайт
Продолжительность : 2 ч. 6 м.
Режим общего битрейта : Переменный
Общий поток : 5613 Кбит/сек
Дата кодирования : UTC 2019-04-17 06:21:19
Программа кодирования : mkvmerge v8.3.0 ('Over the Horizon') 64bit
Библиотека кодирования : libebml v1.3.1 + libmatroska v1.4.2

Видео
Идентификатор : 1
Формат : AVC
Формат/Информация : Advanced Video Codec
Профиль формата : High@L4.1
Параметр CABAC формата : Да
Параметр RefFrames формата : 4 кадра
Идентификатор кодека : V_MPEG4/ISO/AVC
Продолжительность : 2 ч. 6 м.
Вид битрейта : Переменный
Битрейт : 5227 Кбит/сек
Максимальный битрейт : 6000 Кбит/сек
Ширина : 1280 пикселей
Высота : 720 пикселей
Соотношение сторон : 16:9
Режим частоты кадров : Постоянный
Частота кадров : 23,976 (24000/1001) кадра/сек
Стандарт вещания : Component
Цветовое пространство : YUV
Субдискретизация насыщенности : 4:2:0
Битовая глубина : 8 бит
Тип развёртки : Прогрессивная
Бит/(Пиксели*Кадры) : 0.232
Размер потока : 4,53 Гбайт (91%)
Default : Да
Forced : Нет
Цветовой диапазон : Limited
Основные цвета : BT.709
Характеристики трансфера : BT.709
Коэффициенты матрицы : BT.709

Аудио
Идентификатор : 2
Формат : AC-3
Формат/Информация : Audio Coding 3
Расширение режима : CM (complete main)
Параметр Endianness формата : Big
Идентификатор кодека : A_AC3
Продолжительность : 2 ч. 6 м.
Вид битрейта : Постоянный
Битрейт : 384 Кбит/сек
Каналы : 2 канала
Расположение каналов : Front: L R
Частота : 48,0 КГц
Частота кадров : 31,250 кадров/сек (1536 spf)
Метод сжатия : С потерями
Размер потока : 348 Мбайт (7%)
Default : Да
Forced : Нет

pb.wtf



Скачать Суззанна: Похороненная заживо через торрент https://d.radikal.ru/d20/1904/6d/a40446054f3a.jpg Скачать фильм Суззанна: Похороненная заживо через торрент бесплантно в хорошем качестве Описание: Суззанна счастлива - любящий муж, большой дом и вскоре ожидается пополнение в семействе. Но когда супруг отправляется на ... 10 10 3
Торрент: Зарегистрирован [2019-04-18 04:08] · скачан: 35 раз
Статус: T временная
Размер: 4.97 GB
Как cкачать? Как скачать Суззанна: Похороненная заживо через торрент | qTorrent

% Раздел Тема Автор DL S | L
T Фильмы (мультфильмы) cо спонсором показа (Новинки AVI/MKV) [ 2.04 GB ] Суззанна: Похороненная заживо / Suzzanna: Bernapas dalam Kubur [2018 WEB-DLRip] MVO ["Синема УС"] bober100 Скачать
1 | 0
T Фильмы (мультфильмы) cо спонсором показа (Новинки AVI/MKV) [ 1.37 GB ] Суззанна: Похороненная заживо / Suzzanna: Bernapas dalam Kubur [2018 WEB-DLRip] MVO ["Синема УС"] bober100 Скачать
1 | 0

28-11-2019 20:33  

Отключить всю рекламу на сайте

    Дорогой пользователь! Огромная просьба, поблагодарите релизера, оцените раздачу и оставьте свои комментарий, если Вы скачали Суззанна: Похороненная заживо через торрент бесплатно! Внесите свою лепту в развитие PiratBit!
    Комментировать посты могут только пользователи прошедшие не сложную регистрацию
    Показать сообщения:    

    Суззанна: Похороненная заживо через торрент
    Скачать бесплатно Суззанна: Похороненная заживо
    Суззанна: Похороненная заживо скачать торрент
    Суззанна: Похороненная заживо смотреть онлайн
    Cкачать фильм Суззанна: Похороненная заживо бесплатно
    Суззанна: Похороненная заживо скачать торрент в хорошем качестве
    Суззанна: Похороненная заживо смотреть онлайн бесплатно в хорошем качестве


    Вы не можете начинать темы
    Вы не можете отвечать на сообщения
    Вы не можете редактировать свои сообщения
    Вы не можете удалять свои сообщения
    Вы не можете голосовать в опросах
    Вы не можете прикреплять файлы к сообщениям
    Вы можете скачивать файлы