Ссылка на приватное зеркало всего за 1$. Внимание количество ограничено!!!

OK

1+1

iTunes

мы

OK

1

WEB-DLRip

Джокер

Пифагор

Ведьмак / The Witcher сериал

iTunes

ПШазам

ОК

Оно 2

iTunes

30
pack

Вам бонус

ВАЖНО

!!Акция!!

Alien_RageХит недели

RePack

Resident Evil 21

ИГРА 18+

pack

RePack

jed

RePack

fifa19

RePack

Assassins Creed: Odyssey

RePack

NEED FOR SPEED™ PAYBACK

4 сезон

9 сезон

Бесстыжие 9 сезон

Все сериалы

все сериалы на PB.wtf

RePack

FAR CRY 5
  

Волшебный повар 2 / Fairy chief 2 / God Assigned Chef 2 (Ван Цзы) [2017, комедия, фэнтези, WEBRip 720p] MVO [КОЛОБОК] pb.wtf

Волшебный повар 2 через торрент pb.wtf

Размер: 3.26 GB | Добавлен: 9 мес. назад | Торрент скачан:9 раз
Скачать  

18-04-2019 05:30 Волшебный повар 2 Скачать торрент  

Волшебный повар 2 / Fairy chief 2 / God Assigned Chef 2Год выпуска: 2017
Страна: Китай
Жанр: комедия, фэнтези
Продолжительность: 01:37:57
Перевод: Любительский (многоголосый) | КОЛОБОК
Субтитры: отсутствуют

Режиссер: Ван Цзы



В ролях: Ван Ся, Ли Юйян, Чэнь Юй, Чжан Му

Описание: После несчастного случая на съёмочной площадке отец Яна Ихэна оказывается в больнице, а денег на операцию нет. В бессильной злобе Ихэн проглатывает последнюю "волшебную пилюлю", которую передавали в семье из поколения в поколение. Волшебство оказывается настоящим, и Ихэн оказывается далеко в прошлом, где узнаёт, что он теперь - новый бог кулинарии, и что ему предстоит расхлёбывать предстоящую временную кашу.

Качество: WEBRip 720p
Формат: MKV

Видео: h.264,4 384 Кбит/с, 1280x536
Аудио#1: Русский, (AC3, 2 ch, 384 Кбит/с)
скриншот  скриншот  скриншот  

Общее
Уникальный идентификатор : 173407923208139639829644034924926810919 (0x827526B4643954CB9BD1F3D386693B27)
Полное имя : D:\Fairy.chief.2.2O19.Pk.WEBRip.72Op.mkv
Формат : Matroska
Версия формата : Version 2
Размер файла : 3,26 Гбайт
Продолжительность : 1 ч. 37 м.
Режим общего битрейта : Переменный
Общий поток : 4770 Кбит/сек
Дата кодирования : UTC 2019-04-17 08:50:10
Программа кодирования : mkvmerge v8.3.0 ('Over the Horizon') 64bit
Библиотека кодирования : libebml v1.3.1 + libmatroska v1.4.2

Видео
Идентификатор : 1
Формат : AVC
Формат/Информация : Advanced Video Codec
Профиль формата : High@L4.1
Параметр CABAC формата : Да
Параметр RefFrames формата : 4 кадра
Идентификатор кодека : V_MPEG4/ISO/AVC
Продолжительность : 1 ч. 37 м.
Вид битрейта : Переменный
Битрейт : 4384 Кбит/сек
Максимальный битрейт : 5000 Кбит/сек
Ширина : 1280 пикселей
Высота : 536 пикселей
Соотношение сторон : 2,40:1
Режим частоты кадров : Постоянный
Частота кадров : 23,976 (24000/1001) кадра/сек
Стандарт вещания : Component
Цветовое пространство : YUV
Субдискретизация насыщенности : 4:2:0
Битовая глубина : 8 бит
Тип развёртки : Прогрессивная
Бит/(Пиксели*Кадры) : 0.261
Размер потока : 2,94 Гбайт (90%)
Default : Да
Forced : Нет
Цветовой диапазон : Limited
Основные цвета : BT.709
Характеристики трансфера : BT.709
Коэффициенты матрицы : BT.709

Аудио
Идентификатор : 2
Формат : AC-3
Формат/Информация : Audio Coding 3
Расширение режима : CM (complete main)
Параметр Endianness формата : Big
Идентификатор кодека : A_AC3
Продолжительность : 1 ч. 37 м.
Вид битрейта : Постоянный
Битрейт : 384 Кбит/сек
Каналы : 2 канала
Расположение каналов : Front: L R
Частота : 48,0 КГц
Частота кадров : 31,250 кадров/сек (1536 spf)
Метод сжатия : С потерями
Размер потока : 269 Мбайт (8%)
Default : Да
Forced : Нет

pb.wtf



Скачать Волшебный повар 2 через торрент https://d.radikal.ru/d32/1904/08/0cb350fe645d.jpg Скачать фильм Волшебный повар 2 через торрент бесплантно в хорошем качестве Описание: После несчастного случая на съёмочной площадке отец Яна Ихэна оказывается в больнице, а денег на операцию нет. В бессильной злобе ... 10 10 2
Торрент: Зарегистрирован [2019-04-18 05:30] · скачан: 9 раз
Статус: T временная
Размер: 3.26 GB
Как cкачать? Как скачать Волшебный повар 2 через торрент | qTorrent

% Раздел Тема Автор DL S | L
T Фильмы (мультфильмы) cо спонсором показа (Новинки AVI/MKV) [ 1.37 GB ] Волшебный повар 2 / Fairy chief 2 / God Assigned Chef 2 [2017 WEBRip] MVO [КОЛОБОК] bober100 Скачать
1 | 0

28-11-2019 20:33  

Отключить всю рекламу на сайте

    Дорогой пользователь! Огромная просьба, поблагодарите релизера, оцените раздачу и оставьте свои комментарий, если Вы скачали Волшебный повар 2 через торрент бесплатно! Внесите свою лепту в развитие PiratBit!
    Комментировать посты могут только пользователи прошедшие не сложную регистрацию
    Показать сообщения:    

    Волшебный повар 2 через торрент
    Скачать бесплатно Волшебный повар 2
    Волшебный повар 2 скачать торрент
    Волшебный повар 2 смотреть онлайн
    Cкачать фильм Волшебный повар 2 бесплатно
    Волшебный повар 2 скачать торрент в хорошем качестве
    Волшебный повар 2 смотреть онлайн бесплатно в хорошем качестве


    Вы не можете начинать темы
    Вы не можете отвечать на сообщения
    Вы не можете редактировать свои сообщения
    Вы не можете удалять свои сообщения
    Вы не можете голосовать в опросах
    Вы не можете прикреплять файлы к сообщениям
    Вы можете скачивать файлы