Ссылка на приватное зеркало всего за 1$. Внимание количество ограничено!!!

OK

1+1

iTunes

мы

OK

1

WEB-DLRip

Джокер

Пифагор

Ведьмак / The Witcher сериал

iTunes

ПШазам

ОК

Оно 2

iTunes

30
pack

Вам бонус

ВАЖНО

!!Акция!!

Alien_RageХит недели

RePack

Resident Evil 21

ИГРА 18+

pack

RePack

jed

RePack

fifa19

RePack

Assassins Creed: Odyssey

RePack

NEED FOR SPEED™ PAYBACK

4 сезон

9 сезон

Бесстыжие 9 сезон

Все сериалы

все сериалы на PB.wtf

RePack

FAR CRY 5
  

Обитель призраков / Gentayangan (Шиам Рамсей, Витра Аслига) [2018, Ужасы, WEBRip 720p] MVO [КОЛОБОК] pb.wtf

Обитель призраков через торрент pb.wtf

Размер: 3.41 GB | Добавлен: 9 мес. назад | Торрент скачан:21 раз
Скачать  

18-04-2019 07:45 Обитель призраков Скачать торрент  

Обитель призраков / GentayanganГод выпуска: 2018
Страна: Индонезия
Жанр: Ужасы
Продолжительность: 01:24:19
Перевод: Любительский (многоголосый) | КОЛОБОК
Субтитры: отсутствуют

Режиссер: Шиам Рамсей, Витра Аслига

rating

В ролях: Бейм Вонг, Надин Александра, Крис Лоран, Джелита Каллебаут, Бима Азриэль, Марша Аурелия, Хайдар Салиш, Брианна Симорангкир, Винди Дваапсари, Фуад Идрис

Описание: Группа молодых ребят обнаруживает здание в котором находится портал в другое измерение, в котором обитают жуткие призраки.

Качество: WEBRip 720p
Формат: MKV

Видео: h.264, 5 398 Кбит/с, 1280x532
Аудио: Русский, (AC3, 2 ch, 384 Кбит/с)
скриншот  скриншот  скриншот  

Общее
Уникальный идентификатор : 235209661817860628450673542273630510147 (0xB0F3BBABD0587086AC6AADADFB3C9C43)
Полное имя : D:\Gentayangan.2018.Pk.WEBRip.72Op.mkv
Формат : Matroska
Версия формата : Version 2
Размер файла : 3,41 Гбайт
Продолжительность : 1 ч. 24 м.
Режим общего битрейта : Переменный
Общий поток : 5784 Кбит/сек
Дата кодирования : UTC 2019-04-17 00:58:35
Программа кодирования : mkvmerge v8.3.0 ('Over the Horizon') 64bit
Библиотека кодирования : libebml v1.3.1 + libmatroska v1.4.2

Видео
Идентификатор : 1
Формат : AVC
Формат/Информация : Advanced Video Codec
Профиль формата : High@L4.1
Параметр CABAC формата : Да
Параметр RefFrames формата : 4 кадра
Идентификатор кодека : V_MPEG4/ISO/AVC
Продолжительность : 1 ч. 24 м.
Вид битрейта : Переменный
Битрейт : 5398 Кбит/сек
Максимальный битрейт : 6000 Кбит/сек
Ширина : 1280 пикселей
Высота : 532 пикселя
Соотношение сторон : 2,40:1
Режим частоты кадров : Постоянный
Частота кадров : 23,976 (24000/1001) кадра/сек
Стандарт вещания : Component
Цветовое пространство : YUV
Субдискретизация насыщенности : 4:2:0
Битовая глубина : 8 бит
Тип развёртки : Прогрессивная
Бит/(Пиксели*Кадры) : 0.324
Размер потока : 3,11 Гбайт (91%)
Default : Да
Forced : Нет
Цветовой диапазон : Limited
Основные цвета : BT.709
Характеристики трансфера : BT.709
Коэффициенты матрицы : BT.709

Аудио
Идентификатор : 2
Формат : AC-3
Формат/Информация : Audio Coding 3
Расширение режима : CM (complete main)
Параметр Endianness формата : Big
Идентификатор кодека : A_AC3
Продолжительность : 1 ч. 24 м.
Вид битрейта : Постоянный
Битрейт : 384 Кбит/сек
Каналы : 2 канала
Расположение каналов : Front: L R
Частота : 48,0 КГц
Частота кадров : 31,250 кадров/сек (1536 spf)
Метод сжатия : С потерями
Размер потока : 232 Мбайт (7%)
Default : Да
Forced : Нет

pb.wtf



Скачать Обитель призраков через торрент https://d.radikal.ru/d36/1904/47/158a4e0d1666.jpg Скачать фильм Обитель призраков через торрент бесплантно в хорошем качестве Описание: Группа молодых ребят обнаруживает здание в котором находится портал в другое измерение, в котором обитают жуткие ... 10 10 3
Торрент: Зарегистрирован [2019-04-18 07:45] · скачан: 21 раз
Статус: T временная
Размер: 3.41 GB
Как cкачать? Как скачать Обитель призраков через торрент | qTorrent

% Раздел Тема Автор DL S | L
T Фильмы (мультфильмы) cо спонсором показа (Новинки AVI/MKV) [ 1.37 GB ] Обитель призраков / Gentayangan [2018 WEBRip] MVO [КОЛОБОК] bober100 Скачать
1 | 0

28-11-2019 20:33  

Отключить всю рекламу на сайте

    Дорогой пользователь! Огромная просьба, поблагодарите релизера, оцените раздачу и оставьте свои комментарий, если Вы скачали Обитель призраков через торрент бесплатно! Внесите свою лепту в развитие PiratBit!
    Комментировать посты могут только пользователи прошедшие не сложную регистрацию
    Показать сообщения:    

    Обитель призраков через торрент
    Скачать бесплатно Обитель призраков
    Обитель призраков скачать торрент
    Обитель призраков смотреть онлайн
    Cкачать фильм Обитель призраков бесплатно
    Обитель призраков скачать торрент в хорошем качестве
    Обитель призраков смотреть онлайн бесплатно в хорошем качестве


    Вы не можете начинать темы
    Вы не можете отвечать на сообщения
    Вы не можете редактировать свои сообщения
    Вы не можете удалять свои сообщения
    Вы не можете голосовать в опросах
    Вы не можете прикреплять файлы к сообщениям
    Вы можете скачивать файлы