Ссылка на приватное зеркало всего за 1$. Внимание количество ограничено!!!

OK

1+1

iTunes

мы

OK

1

WEB-DLRip

Джокер

Пифагор

Ведьмак / The Witcher сериал

Лицензия

ПШазам

ОК

Оно 2

iTunes

30
pack

Вам бонус

ВАЖНО

!!Акция!!

Alien_RageХит недели

RePack

Resident Evil 21

ИГРА 18+

pack

RePack

jed

RePack

fifa19

RePack

Assassins Creed: Odyssey

RePack

NEED FOR SPEED™ PAYBACK

4 сезон

9 сезон

Бесстыжие 9 сезон

Все сериалы

все сериалы на PB.wtf

RePack

FAR CRY 5
  

Нигерийский принц / Nigerian Prince (Фарадей Окоро) [2018, Триллер, драма, WEB-DL 720p] MVO ["Синема УС"] pb.wtf

Нигерийский принц через торрент pb.wtf

Размер: 4.16 GB | Добавлен: 9 мес. назад | Торрент скачан:5 раз
Скачать  

18-04-2019 08:37 Нигерийский принц Скачать торрент  

Нигерийский принц / Nigerian PrinceГод выпуска: 2018
Страна: США
Жанр: Триллер, драма
Продолжительность: 01:45:00
Перевод: Любительский (многоголосый) | "Синема УС"
Субтитры: отсутствуют

Режиссер: Фарадей Окоро

rating

В ролях: Антонио Джей Белл, Чиназа Уче, Тина Мба, Бимбо Мануэль, Эбби Бэйсси, Рита Эдвард, Крэйг Стотт, Дин Кэмерон, Омар Маскати, Расселл Дж. Джонс

Описание: Молодого чёрного американца мать отправляет в Нигерию против его воли. Он объединяется с Интернет-мошенником, чтобы заработать денег на билет домой.

Качество: WEB-DL 720p
Формат: MKV

Видео: h.264,5 281 Кбит/с, 1280x536
Аудио: Русский, (AC3, 2 ch, 384 Кбит/с)
скриншот  скриншот  скриншот  

Общее
Уникальный идентификатор : 254276847679578759668676781214929651376 (0xBF4BF083CBCEDF4695FF502051DA06B0)
Полное имя : D:\Nigerian.Prince.2018.P.WEB-DL.72Op.mkv
Формат : Matroska
Версия формата : Version 2
Размер файла : 4,16 Гбайт
Продолжительность : 1 ч. 45 м.
Режим общего битрейта : Переменный
Общий поток : 5667 Кбит/сек
Дата кодирования : UTC 2019-04-17 08:46:19
Программа кодирования : mkvmerge v8.3.0 ('Over the Horizon') 64bit
Библиотека кодирования : libebml v1.3.1 + libmatroska v1.4.2

Видео
Идентификатор : 1
Формат : AVC
Формат/Информация : Advanced Video Codec
Профиль формата : High@L4.1
Параметр CABAC формата : Да
Параметр RefFrames формата : 4 кадра
Идентификатор кодека : V_MPEG4/ISO/AVC
Продолжительность : 1 ч. 45 м.
Вид битрейта : Переменный
Битрейт : 5281 Кбит/сек
Максимальный битрейт : 6000 Кбит/сек
Ширина : 1280 пикселей
Высота : 536 пикселей
Соотношение сторон : 2,40:1
Режим частоты кадров : Постоянный
Частота кадров : 23,976 (24000/1001) кадра/сек
Стандарт вещания : Component
Цветовое пространство : YUV
Субдискретизация насыщенности : 4:2:0
Битовая глубина : 8 бит
Тип развёртки : Прогрессивная
Бит/(Пиксели*Кадры) : 0.314
Размер потока : 3,79 Гбайт (91%)
Default : Да
Forced : Нет
Цветовой диапазон : Limited
Основные цвета : BT.709
Характеристики трансфера : BT.709
Коэффициенты матрицы : BT.709

Аудио
Идентификатор : 2
Формат : AC-3
Формат/Информация : Audio Coding 3
Расширение режима : CM (complete main)
Параметр Endianness формата : Big
Идентификатор кодека : A_AC3
Продолжительность : 1 ч. 45 м.
Вид битрейта : Постоянный
Битрейт : 384 Кбит/сек
Каналы : 2 канала
Расположение каналов : Front: L R
Частота : 48,0 КГц
Частота кадров : 31,250 кадров/сек (1536 spf)
Метод сжатия : С потерями
Размер потока : 288 Мбайт (7%)
Default : Да
Forced : Нет

pb.wtf



Скачать Нигерийский принц через торрент https://d.radikal.ru/d06/1904/c6/d05cb85154fa.jpg Скачать фильм Нигерийский принц через торрент бесплантно в хорошем качестве Описание: Молодого чёрного американца мать отправляет в Нигерию против его воли. Он объединяется с Интернет-мошенником, чтобы заработать ... 7 10 3
Торрент: Зарегистрирован [2019-04-18 08:37] · скачан: 5 раз
Статус: T временная
Размер: 4.16 GB
Как cкачать? Как скачать Нигерийский принц через торрент | qTorrent

% Раздел Тема Автор DL S | L
T Фильмы (мультфильмы) cо спонсором показа (Новинки AVI/MKV) [ 1.37 GB ] Нигерийский принц / Nigerian Prince [2018 WEB-DLRip] MVO ["Синема УС"] bober100 Скачать
1 | 0

28-11-2019 20:33  

Отключить всю рекламу на сайте

    Дорогой пользователь! Огромная просьба, поблагодарите релизера, оцените раздачу и оставьте свои комментарий, если Вы скачали Нигерийский принц через торрент бесплатно! Внесите свою лепту в развитие PiratBit!
    Комментировать посты могут только пользователи прошедшие не сложную регистрацию
    Показать сообщения:    

    Нигерийский принц через торрент
    Скачать бесплатно Нигерийский принц
    Нигерийский принц скачать торрент
    Нигерийский принц смотреть онлайн
    Cкачать фильм Нигерийский принц бесплатно
    Нигерийский принц скачать торрент в хорошем качестве
    Нигерийский принц смотреть онлайн бесплатно в хорошем качестве


    Вы не можете начинать темы
    Вы не можете отвечать на сообщения
    Вы не можете редактировать свои сообщения
    Вы не можете удалять свои сообщения
    Вы не можете голосовать в опросах
    Вы не можете прикреплять файлы к сообщениям
    Вы можете скачивать файлы