новый адрес
Ссылка на приватное зеркало всего за 1$. Внимание количество ограничено!!!

iTunes

1+1

iTunes

мы

WEB-DL

1

iTunes

Чернобыль

iTunes

Ральф против интернета

Лицензия

ПШазам

Лицензия

Оно 2

Лицензия

30
pack

Вам бонус

ВАЖНО

!!Акция!!

Alien_RageХит недели

RePack

Resident Evil 21

ИГРА 18+

pack

RePack

jed

!!Акция!!

Alien_Rage

RePack

fifa19

RePack

Assassins Creed: Odyssey

RePack

NEED FOR SPEED™ PAYBACK

3 сезон

9 сезон

Бесстыжие 9 сезон

Все сериалы

все сериалы на PB.wtf

RePack

FAR CRY 5
Ребята, катастрофически не хватает 1900р. для оплаты серверов за Октябрь (всвязи с блокировками трафик упал в 3 раза), 1-2р., выручайте.
  

Когда казаки плачут (Евгений Моргунов) [1963, СССР, короткометражка, комедия, SATRip от AVP Studio] pb.wtf

Когда казаки плачут через торрент pb.wtf

Размер: 371 MB | Добавлен: 7 мес. назад | Торрент скачан:6 раз
Скачать  

18-04-2019 09:11 Когда казаки плачут Скачать торрент  

Когда казаки плачут
Страна: СССР
Производство: Свердловская киностудия

Жанр: короткометражка, комедия
Год выпуска: 1963
Продолжительность: 00:25:58

Перевод: Не требуется
Cубтитры: нет
Оригинальная аудиодорожка: русский

Режиссер: Евгений Моргунов

В ролях:
Эмма Цесарская, Ирина Мурзаева, Зоя Василькова, Татьяна Забродина, А. Андреева, Александр Гречаный, Николай Горлов, Георгий Светлани, Владимир Емельянов, Инга Будкевич...
Об актёрах подробней

Описание:
По мотивам рассказа "О Колчаке, крапиве и прочем" Михаила Шолохова.
Дон. 1926 год. Бывшая хуторянка Настя возвращается в родные места. На родном хуторе она наблюдает знакомую картину: вольготна жизнь казаков, в то время как их жёны изнемогают от тяжёлой мужской работы. Однажды ночью после очередной казачьей гулянки, собрав детей и необходимую утварь, казачки неожиданно исчезают из хутора...
Единственная режиссерская работа известного актера кино Евгения Моргунова, снимавшаяся под патронажем Михаила Шолохова на его родине.

Исходник: DVB
Качество видео: SATRip
Формат видео: AVI

Видео: 688x512 (4:3), 25,000 кадров/сек, XviD ~ 1798 kbps avg, 0.204 bit/pixel
Аудио: 48 kHz, Dolby Digital AC3 2.0, 192 kbps

Раздача от:
Общее
Полное имя : Kogda.kazaki.plachut.1963.SATRip_[New-team]_by_AVP_Studio.avi
Формат : AVI
Формат/Информация : Audio Video Interleave
Размер файла : 371 Мбайт
Продолжительность : 25 м. 57 с.
Общий поток : 2000 Кбит/сек
Программа кодирования : VirtualDubMod 1.5.10.3 | www.virtualdub-fr.org || (build 2550/release)
Библиотека кодирования : VirtualDubMod build 2550/release

Видео
Идентификатор : 0
Формат : MPEG-4 Visual
Профиль формата : Advanced Simple@L5
Настройки формата : BVOP1 / Custom Matrix
Параметр BVOP формата : 1
Параметр QPel формата : Нет
Параметр GMC формата : Без точки перехода
Параметр матрицы формата : Выборочная
Идентификатор кодека : XVID
Идентификатор кодека/Подсказка : XviD
Продолжительность : 25 м. 57 с.
Битрейт : 1798 Кбит/сек
Ширина : 688 пикселей
Высота : 512 пикселей
Соотношение сторон : 4:3
Частота кадров : 25,000 кадров/сек
Цветовое пространство : YUV
Субдискретизация насыщенности : 4:2:0
Битовая глубина : 8 бит
Тип развёртки : Прогрессивная
Метод сжатия : С потерями
Бит/(Пиксели*Кадры) : 0.204
Размер потока : 334 Мбайт (90%)
Библиотека кодирования : XviD 73

Аудио
Идентификатор : 1
Формат : AC-3
Формат/Информация : Audio Coding 3
Коммерческое название : Dolby Digital
Идентификатор кодека : 2000
Продолжительность : 25 м. 57 с.
Вид битрейта : Постоянный
Битрейт : 192 Кбит/сек
Каналы : 2 канала
Channel layout : L R
Частота : 48,0 КГц
Частота кадров : 31,250 кадров/сек (1536 SPF)
Битовая глубина : 16 бит
Метод сжатия : С потерями
Размер потока : 35,7 Мбайт (10%)
Выравнивание : Разделение по промежуткам
Продолжительность промежутка : 40 мс. (1,00 видеокадр)
Время предзагрузки промежутка : 500 мс
pb.wtf



Скачать Когда казаки плачут через торрент http://picplus.ru/img/1904/18/ae2756f3.png Скачать фильм Когда казаки плачут через торрент бесплантно в хорошем качестве Описание:По мотивам рассказа "О Колчаке, крапиве и прочем" Михаила Шолохова.Дон. 1926 год. Бывшая хуторянка Настя возвращается в родные ... 10 10 1
Info! Золотая раздача, скачанное не засчитывается.
Торрент: Зарегистрирован [2019-04-18 09:11] · скачан: 6 раз
Статус: √ проверено
Размер: 371 MB
Как cкачать? Как скачать Когда казаки плачут через торрент | qTorrent

% Раздел Тема Автор DL S | L
Кино СССР [ 372 MB ] Когда казаки плачут [1963 СССР короткометражка SATRip-AVC от AVP Studio] AVP Studio Скачать
1 | 0

28-11-2019 20:33  

Отключить всю рекламу на сайте

    Дорогой пользователь! Огромная просьба, поблагодарите релизера, оцените раздачу и оставьте свои комментарий, если Вы скачали Когда казаки плачут через торрент бесплатно! Внесите свою лепту в развитие PiratBit!
    Комментировать посты могут только пользователи прошедшие не сложную регистрацию
    Показать сообщения:    

    Когда казаки плачут через торрент
    Скачать бесплатно Когда казаки плачут
    Когда казаки плачут скачать торрент
    Когда казаки плачут смотреть онлайн
    Cкачать фильм Когда казаки плачут бесплатно
    Когда казаки плачут скачать торрент в хорошем качестве
    Когда казаки плачут смотреть онлайн бесплатно в хорошем качестве


    Вы не можете начинать темы
    Вы не можете отвечать на сообщения
    Вы не можете редактировать свои сообщения
    Вы не можете удалять свои сообщения
    Вы не можете голосовать в опросах
    Вы не можете прикреплять файлы к сообщениям
    Вы можете скачивать файлы